西西论坛

 找回密码
 立即注册
搜索

[4K-原盘] 邻里美好的一天 A.Beautiful.Day.in.the.Neighborhood.2019.2160p.BluRay.R...

[复制链接]
电影首发 发表于 2020-2-8 18:10:40 | 显示全部楼层 |阅读模式
帖子完整标题:邻里美好的一天 A.Beautiful.Day.in.the.Neighborhood.2019.2160p.BluRay.REMUX.HEVC.DTS-X.7.1-FGT 49.51GB




◎译  名 邻里美好的一天 / I'm Proud of You / You Are My Friend / 你是我朋友 / 你是我的朋友 / 在晴朗的一天出发(港)
◎片  名 A Beautiful Day in the Neighborhood
◎年  代 2019
◎产  地 美国 / 中国大陆
◎类  别 剧情 / 传记
◎语  言 英语
◎上映日期 2019-09-07(多伦多电影节) / 2019-11-22(美国) / 2020-03-06(中国大陆)
◎IMDb评分  7.5/10 from 17380 users
◎片  长 107分钟
◎导  演 玛丽埃尔·海勒 Marielle Heller
◎编  剧 迈卡·费兹曼-布卢 Micah Fitzerman-Blue / 诺亚·哈普斯特 Noah Harpster
◎主  演 汤姆·汉克斯 Tom Hanks
       马修·瑞斯 Matthew Rhys
       苏珊·卡莱布·沃森 Susan Kelechi Watson
       温迪·麦凯纳 Wendy Makkena
       麦迪·科尔曼 Maddie Corman
       克里斯·库珀 Chris Cooper
       沙基纳·贾弗里 Sakina Jaffrey
       恩里克·克兰东尼 Enrico Colantoni
       坦米·布兰查德 Tammy Blanchard
       克里斯塔尔·伦伯格 Kitty Crystal
       迈克尔·马西尼 Michael Masini
       诺亚·哈普斯特 Noah Harpster
       泰德·威廉姆斯 Ted Williams
       帕特里克·麦克戴德 Patrick McDade
       威廉·卡尼亚 William Kania
       玛丽安·普朗科特 Maryann Plunkett
       卡门·库萨克 Carmen Cusack
       凯莉·戴维斯 Kelley Davis


◎标  签 美国 | 传记 | 2019 | 温情 | 剧情 | 汤姆汉克斯 | 治愈 | 家庭

◎简  介  

  影片根据真实事件改编,聚焦美国著名电视主持人罗杰斯先生(汤姆·汉克斯 饰)与记者罗伊德·沃格尔(马修·瑞斯 饰)之间的友情故事。
  一心想要揭露社会阴暗丑恶的新闻记者罗伊德被安排采访罗杰斯先生,作为杂志新一期的英雄人物专题报道。试图借机挖掘罗杰斯先生阴暗面的罗伊德,也正因自己与父亲的矛盾面临着家庭问题和个人困境。而在采访过程中,他被罗杰斯言行一致的真诚善良慢慢影响,与父亲、与儿子、与妻子的关系也正在发生变化……

◎获奖情况  

  第92届奥斯卡金像奖(2020)
  最佳男配角(提名) 汤姆·汉克斯

  第77届金球奖(2020)
  电影类 最佳男配角(提名) 汤姆·汉克斯

  第73届英国电影学院奖(2020)
  电影奖 最佳男配角(提名) 汤姆·汉克斯

  第26届美国演员工会奖(2020)
  电影奖 最佳男配角(提名) 汤姆·汉克斯

  第72届美国编剧工会奖(2020)
  电影奖 最佳改编剧本(提名) 诺亚·哈普斯特 / 迈卡·费兹曼-布卢

  第24届美国艺术指导工会奖(2020)
  电影奖 最佳当代电影艺术指导(提名) Jade Healy

  第22届美国服装设计工会奖(2020)
  现代电影最佳服装设计(提名) Arjun Bhasin

  第25届美国评论家选择电影奖(2020)
  最佳男配角(提名) 汤姆·汉克斯
  最佳改编剧本(提名) 诺亚·哈普斯特 / 迈卡·费兹曼-布卢

  第24届金卫星奖(2020)
  电影部门 最佳男配角(提名) 汤姆·汉克斯

  第40届伦敦影评人协会奖(2020)
  年度男配角(提名) 汤姆·汉克斯

  第32届芝加哥影评人协会奖(2019)
  最佳男配角(提名) 汤姆·汉克斯
  最佳改编剧本(提名) 诺亚·哈普斯特 / 迈卡·费兹曼-布卢

  第23届美国在线影评人协会奖(2020)
  最佳改编剧本(提名) 诺亚·哈普斯特 / 迈卡·费兹曼-布卢
Video
ID                                       : 1
Format                                   : HEVC
Format/Info                              : High Efficiency Video Coding
HDR format                               : SMPTE ST 2086, HDR10 compatible
Codec ID                                 : V_MPEGH/ISO/HEVC
Duration                                 : 1 h 48 min
Bit rate                                 : 55.0 Mb/s
Width                                    : 3 840 pixels
Height                                   : 2 160 pixels
Display aspect ratio                     : 16:9
Frame rate mode                          : Constant
Frame rate                               : 23.976 (24000/1001) FPS
Color space                              : YUV
Chroma subsampling                       : 4:2:0 (Type 2)
Bit depth                                : 10 bits
Bits/(Pixel*Frame)                       : 0.277
Stream size                              : 41.8 GiB (84%)
Title                                    : A.Beautiful.Day.in.the.Neighborhood.2019.2160p.BluRay.REMUX.HEVC.DTS-X.7.1-FGT
Language                                 : English
Default                                  : No
Forced                                   : No
Color range                              : Limited
Color primaries                          : BT.2020
Transfer characteristics                 : PQ
Matrix coefficients                      : BT.2020 non-constant
Mastering display color primaries        : Display P3
Mastering display luminance              : min: 0.0050 cd/m2, max: 4000 cd/m2
Maximum Content Light Level              : 1264 cd/m2
Maximum Frame-Average Light Level        : 211 cd/m2

Audio #1
ID                                       : 2
Format                                   : DTS XLL
Format/Info                              : Digital Theater Systems
Commercial name                          : DTS-HD Master Audio
Codec ID                                 : A_DTS
Duration                                 : 1 h 48 min
Bit rate mode                            : Variable
Bit rate                                 : 5 953 kb/s
Channel(s)                               : 8 channels
Channel layout                           : C L R LFE Lb Rb Lss Rss
Sampling rate                            : 48.0 kHz
Frame rate                               : 93.750 FPS (512 SPF)
Bit depth                                : 24 bits
Compression mode                         : Lossless
Stream size                              : 4.52 GiB (9%)
Title                                    : A.Beautiful.Day.in.the.Neighborhood.2019.2160p.BluRay.REMUX.HEVC.DTS-X.7.1-FGT
Language                                 : English
Default                                  : Yes
Forced                                   : No

Audio #2
ID                                       : 3
Format                                   : DTS
Format/Info                              : Digital Theater Systems
Codec ID                                 : A_DTS
Duration                                 : 1 h 48 min
Bit rate mode                            : Constant
Bit rate                                 : 1 509 kb/s
Channel(s)                               : 6 channels
Channel layout                           : C L R Ls Rs LFE
Sampling rate                            : 48.0 kHz
Frame rate                               : 93.750 FPS (512 SPF)
Bit depth                                : 24 bits
Compression mode                         : Lossy
Stream size                              : 1.15 GiB (2%)
Title                                    : A.Beautiful.Day.in.the.Neighborhood.2019.2160p.BluRay.REMUX.HEVC.DTS-X.7.1-FGT
Language                                 : English
Default                                  : No
Forced                                   : No

Audio #3
ID                                       : 4
Format                                   : AC-3
Format/Info                              : Audio Coding 3
Commercial name                          : Dolby Digital
Codec ID                                 : A_AC3
Duration                                 : 1 h 48 min
Bit rate mode                            : Constant
Bit rate                                 : 640 kb/s
Channel(s)                               : 6 channels
Channel layout                           : L R C LFE Ls Rs
Sampling rate                            : 48.0 kHz
Frame rate                               : 31.250 FPS (1536 SPF)
Bit depth                                : 16 bits
Compression mode                         : Lossy
Stream size                              : 498 MiB (1%)
Title                                    : A.Beautiful.Day.in.the.Neighborhood.2019.2160p.BluRay.REMUX.HEVC.DTS-X.7.1-FGT
Language                                 : English
Service kind                             : Complete Main
Default                                  : No
Forced                                   : No

Audio #4
ID                                       : 5
Format                                   : AC-3
Format/Info                              : Audio Coding 3
Commercial name                          : Dolby Digital
Codec ID                                 : A_AC3
Duration                                 : 1 h 48 min
Bit rate mode                            : Constant
Bit rate                                 : 640 kb/s
Channel(s)                               : 6 channels
Channel layout                           : L R C LFE Ls Rs
Sampling rate                            : 48.0 kHz
Frame rate                               : 31.250 FPS (1536 SPF)
Bit depth                                : 16 bits
Compression mode                         : Lossy
Stream size                              : 498 MiB (1%)
Title                                    : A.Beautiful.Day.in.the.Neighborhood.2019.2160p.BluRay.REMUX.HEVC.DTS-X.7.1-FGT
Language                                 : French
Service kind                             : Complete Main
Default                                  : No
Forced                                   : No

Audio #5
ID                                       : 6
Format                                   : AC-3
Format/Info                              : Audio Coding 3
Commercial name                          : Dolby Digital
Codec ID                                 : A_AC3
Duration                                 : 1 h 48 min
Bit rate mode                            : Constant
Bit rate                                 : 640 kb/s
Channel(s)                               : 6 channels
Channel layout                           : L R C LFE Ls Rs
Sampling rate                            : 48.0 kHz
Frame rate                               : 31.250 FPS (1536 SPF)
Bit depth                                : 16 bits
Compression mode                         : Lossy
Stream size                              : 498 MiB (1%)
Title                                    : A.Beautiful.Day.in.the.Neighborhood.2019.2160p.BluRay.REMUX.HEVC.DTS-X.7.1-FGT
Language                                 : French
Service kind                             : Complete Main
Default                                  : No
Forced                                   : No

Audio #6
ID                                       : 7
Format                                   : AC-3
Format/Info                              : Audio Coding 3
Commercial name                          : Dolby Digital
Codec ID                                 : A_AC3
Duration                                 : 1 h 48 min
Bit rate mode                            : Constant
Bit rate                                 : 640 kb/s
Channel(s)                               : 6 channels
Channel layout                           : L R C LFE Ls Rs
Sampling rate                            : 48.0 kHz
Frame rate                               : 31.250 FPS (1536 SPF)
Bit depth                                : 16 bits
Compression mode                         : Lossy
Stream size                              : 498 MiB (1%)
Title                                    : A.Beautiful.Day.in.the.Neighborhood.2019.2160p.BluRay.REMUX.HEVC.DTS-X.7.1-FGT
Language                                 : Spanish
Service kind                             : Complete Main
Default                                  : No
Forced                                   : No

Text #1
ID                                       : 8
Format                                   : UTF-8
Codec ID                                 : S_TEXT/UTF8
Codec ID/Info                            : UTF-8 Plain Text
Duration                                 : 1 h 37 min
Bit rate                                 : 49 b/s
Count of elements                        : 1154
Stream size                              : 35.8 KiB (0%)
Title                                    : English-SRT
Language                                 : English
Default                                  : Yes
Forced                                   : No

Text #2
ID                                       : 9
Format                                   : UTF-8
Codec ID                                 : S_TEXT/UTF8
Codec ID/Info                            : UTF-8 Plain Text
Duration                                 : 1 h 47 min
Bit rate                                 : 55 b/s
Count of elements                        : 1389
Stream size                              : 43.8 KiB (0%)
Title                                    : English-SDH-SRT
Language                                 : English
Default                                  : No
Forced                                   : No

Text #3
ID                                       : 10
Format                                   : PGS
Muxing mode                              : zlib
Codec ID                                 : S_HDMV/PGS
Codec ID/Info                            : Picture based subtitle format used on BDs/HD-DVDs
Duration                                 : 1 h 47 min
Bit rate                                 : 33.5 kb/s
Count of elements                        : 2784
Stream size                              : 25.7 MiB (0%)
Title                                    : English-PGS
Language                                 : English
Default                                  : No
Forced                                   : No

Text #4
ID                                       : 11
Format                                   : PGS
Muxing mode                              : zlib
Codec ID                                 : S_HDMV/PGS
Codec ID/Info                            : Picture based subtitle format used on BDs/HD-DVDs
Duration                                 : 1 h 43 min
Bit rate                                 : 31.8 kb/s
Count of elements                        : 2548
Stream size                              : 23.5 MiB (0%)
Title                                    : English-SDH-PGS
Language                                 : English
Default                                  : No
Forced                                   : No

Text #5
ID                                       : 12
Format                                   : PGS
Muxing mode                              : zlib
Codec ID                                 : S_HDMV/PGS
Codec ID/Info                            : Picture based subtitle format used on BDs/HD-DVDs
Duration                                 : 1 h 47 min
Bit rate                                 : 26.1 kb/s
Count of elements                        : 2530
Stream size                              : 20.2 MiB (0%)
Title                                    : Chinese-PGS
Language                                 : Chinese
Default                                  : No
Forced                                   : No

Text #6
ID                                       : 13
Format                                   : PGS
Muxing mode                              : zlib
Codec ID                                 : S_HDMV/PGS
Codec ID/Info                            : Picture based subtitle format used on BDs/HD-DVDs
Duration                                 : 1 h 47 min
Bit rate                                 : 25.8 kb/s
Count of elements                        : 2522
Stream size                              : 19.9 MiB (0%)
Title                                    : Chinese-PGS
Language                                 : Chinese
Default                                  : No
Forced                                   : No

Text #7
ID                                       : 14
Format                                   : PGS
Muxing mode                              : zlib
Codec ID                                 : S_HDMV/PGS
Codec ID/Info                            : Picture based subtitle format used on BDs/HD-DVDs
Duration                                 : 1 h 47 min
Bit rate                                 : 27.0 kb/s
Count of elements                        : 2518
Stream size                              : 20.8 MiB (0%)
Title                                    : French-PGS
Language                                 : French
Default                                  : No
Forced                                   : No

Text #8
ID                                       : 15
Format                                   : PGS
Muxing mode                              : zlib
Codec ID                                 : S_HDMV/PGS
Codec ID/Info                            : Picture based subtitle format used on BDs/HD-DVDs
Duration                                 : 1 h 47 min
Bit rate                                 : 25.8 kb/s
Count of elements                        : 2802
Stream size                              : 19.9 MiB (0%)
Title                                    : Korean-PGS
Language                                 : Korean
Default                                  : No
Forced                                   : No

Text #9
ID                                       : 16
Format                                   : PGS
Muxing mode                              : zlib
Codec ID                                 : S_HDMV/PGS
Codec ID/Info                            : Picture based subtitle format used on BDs/HD-DVDs
Duration                                 : 1 h 47 min
Bit rate                                 : 27.4 kb/s
Count of elements                        : 2326
Stream size                              : 21.2 MiB (0%)
Title                                    : Spanish-PGS
Language                                 : Spanish
Default                                  : No
Forced                                   : No

Text #10
ID                                       : 17
Format                                   : PGS
Muxing mode                              : zlib
Codec ID                                 : S_HDMV/PGS
Codec ID/Info                            : Picture based subtitle format used on BDs/HD-DVDs
Duration                                 : 1 h 47 min
Bit rate                                 : 24.0 kb/s
Count of elements                        : 2490
Stream size                              : 18.5 MiB (0%)
Title                                    : Thai-PGS
Language                                 : Thai
Default                                  : No
Forced                                   : No

Text #11
ID                                       : 18
Format                                   : PGS
Muxing mode                              : zlib
Codec ID                                 : S_HDMV/PGS
Codec ID/Info                            : Picture based subtitle format used on BDs/HD-DVDs
Duration                                 : 1 h 47 min
Bit rate                                 : 147 b/s
Count of elements                        : 10
Stream size                              : 116 KiB (0%)
Title                                    : French-PGS
Language                                 : French
Default                                  : No
Forced                                   : No

Text #12
ID                                       : 19
Format                                   : PGS
Muxing mode                              : zlib
Codec ID                                 : S_HDMV/PGS
Codec ID/Info                            : Picture based subtitle format used on BDs/HD-DVDs
Duration                                 : 1 h 47 min
Bit rate                                 : 147 b/s
Count of elements                        : 10
Stream size                              : 116 KiB (0%)
Title                                    : French-FORCED-PGS
Language                                 : French
Default                                  : No
Forced                                   : No

Menu
00:00:00.000                             : en:Chapter 01
00:07:00.128                             : en:Chapter 02
00:14:17.231                             : en:Chapter 03
00:20:55.837                             : en:Chapter 04
00:30:32.747                             : en:Chapter 05
00:37:31.040                             : en:Chapter 06
00:45:50.581                             : en:Chapter 07
00:50:13.635                             : en:Chapter 08
00:57:34.451                             : en:Chapter 09
01:03:19.462                             : en:Chapter 10
01:07:26.459                             : en:Chapter 11
01:10:36.815                             : en:Chapter 12
01:14:31.133                             : en:Chapter 13
01:17:33.482                             : en:Chapter 14
01:28:54.579                             : en:Chapter 15
01:37:27.591                             : en:Chapter 16



                                                                                                                                                                                                        
                                                                                                                                                                                                                                                                                                                                                                                                                                                                                                                                                                                                                                                                                                                                                                                                                                                      
79eb8287f0b54d54b92504440cd7d709.torrent (124.37 KB, 下载次数: 0)

回复

使用道具 举报

小黑屋|西西论坛

本网站所有资源来自网络,如无意中侵犯了您的权益,请发邮件至 [email protected],立即清除相关链接

GMT+8, 2020-2-28 18:24 , Processed in 0.066598 second(s), 23 queries .

Powered by Discuz! X3.2

© 2001-2013 Comsenz Inc.

快速回复 返回顶部 返回列表