西西论坛

 找回密码
 立即注册
搜索

[BD-4K] 根西岛文学与土豆皮馅饼俱乐部 The.Guernsey.Literary.and.Potato.P...

[复制链接]
电影首发 发表于 2020-2-8 18:05:32 | 显示全部楼层 |阅读模式
帖子完整标题:根西岛文学与土豆皮馅饼俱乐部 The.Guernsey.Literary.and.Potato.Peel.Pie.Society.2018.2160p.AMZN.WEBRip.DDP5.1.x264-AJP69 30.99GB




◎译  名 根西岛文学与土豆皮馅饼俱乐部 / Guernsey / 根基岛的文学和土豆派协会 / 真爱收信中(台) / 纳粹铁蹄下的密函情书(港)
◎片  名 The Guernsey Literary and Potato Peel Pie Society
◎年  代 2018
◎产  地 英国 / 美国
◎类  别 剧情 / 爱情 / 历史
◎语  言 英语
◎上映日期 2018-04-20(英国)
◎片  长 124分钟
◎导  演 迈克·内威尔 Mike Newell
◎编  剧 唐·罗斯 Don Roos / 凯文·胡德 Kevin Hood / 托马斯·伯祖查 Thomas Bezucha
◎主  演 莉莉·詹姆斯 Lily James
       米契尔·哈思曼 Michiel Huisman
       格伦·鲍威尔 Glen Powell
       马修·古迪 Matthew Goode
       杰西卡·布朗·芬德利 Jessica Brown Findlay
       汤姆·康特奈 Tom Courtenay
       佩内洛普·威尔顿 Penelope Wilton


◎标  签 英国 | 爱情 | 文艺 | 小说改编 | 二战 | 剧情 | 2018 | 文学

◎简  介  

  本片根据安妮·巴罗斯、玛丽·安·谢弗同名小说改编。故事构建于二战后,讲述作家朱丽叶·艾什顿(莉莉·詹姆斯饰)与“根西岛文学与土豆皮馅饼俱乐部”之间互相了解并熟知的故事。
Video
ID                                       : 1
Format                                   : AVC
Format/Info                              : Advanced Video Codec
Format settings                          : CABAC / 5 Ref Frames
Format settings, CABAC                   : Yes
Format settings, Reference frames        : 5 frames
Codec ID                                 : V_MPEG4/ISO/AVC
Duration                                 : 2 h 3 min
Bit rate                                 : 35.3 Mb/s
Width                                    : 3 840 pixels
Height                                   : 2 080 pixels
Display aspect ratio                     : 1.85:1
Original display aspect ratio            : 1.85:1
Frame rate mode                          : Constant
Frame rate                               : 24.000 FPS
Color space                              : YUV
Chroma subsampling                       : 4:2:0
Bit depth                                : 8 bits
Scan type                                : Progressive
Bits/(Pixel*Frame)                       : 0.184
Stream size                              : 30.4 GiB (98%)
Writing library                          : x264 core 155 r2901 7d0ff22
Encoding settings                        : cabac=1 / ref=5 / deblock=1:-3:-3 / analyse=0x3:0x133 / me=umh / subme=10 / psy=1 / psy_rd=1.00:0.00 / mixed_ref=1 / me_range=48 / chroma_me=1 / trellis=2 / 8x8dct=1 / cqm=0 / deadzone=21,11 / fast_pskip=0 / chroma_qp_offset=-2 / threads=12 / lookahead_threads=2 / sliced_threads=0 / nr=0 / decimate=0 / interlaced=0 / bluray_compat=0 / constrained_intra=0 / bframes=8 / b_pyramid=2 / b_adapt=2 / b_bias=0 / direct=3 / weightb=1 / open_gop=0 / weightp=2 / keyint=250 / keyint_min=24 / scenecut=40 / intra_refresh=0 / rc=crf / mbtree=0 / crf=17.0 / qcomp=0.60 / qpmin=0 / qpmax=69 / qpstep=4 / ip_ratio=1.40 / pb_ratio=1.30 / aq=3:0.80
Default                                  : Yes
Forced                                   : No

Audio
ID                                       : 2
Format                                   : E-AC-3
Format/Info                              : Enhanced AC-3
Commercial name                          : Dolby Digital Plus
Codec ID                                 : A_EAC3
Duration                                 : 2 h 3 min
Bit rate mode                            : Constant
Bit rate                                 : 640 kb/s
Channel(s)                               : 6 channels
Channel layout                           : L R C LFE Ls Rs
Sampling rate                            : 48.0 kHz
Frame rate                               : 31.250 FPS (1536 SPF)
Compression mode                         : Lossy
Stream size                              : 565 MiB (2%)
Language                                 : English
Service kind                             : Complete Main
Default                                  : Yes
Forced                                   : No



                                                                                                                                                                                                        
                                                                                                                                                                                                                                                                                                                                                                                                                                                                                                                                                                                                                                                                                                                                                                                                                                                      
f73b6c519967a38663af8ce6a0a873f8.torrent (78.08 KB, 下载次数: 0)

回复

使用道具 举报

小黑屋|西西论坛

本网站所有资源来自网络,如无意中侵犯了您的权益,请发邮件至 [email protected],立即清除相关链接

GMT+8, 2020-2-28 18:58 , Processed in 0.070580 second(s), 23 queries .

Powered by Discuz! X3.2

© 2001-2013 Comsenz Inc.

快速回复 返回顶部 返回列表