西西论坛

 找回密码
 立即注册
搜索

逃组 Hit-and-Run.Squad.2019.1080p.BluRay.x264-GiMCHi 9.84GB

[复制链接]
电影首发 发表于 2020-2-8 17:39:50 | 显示全部楼层 |阅读模式
帖子完整标题:逃组 Hit-and-Run.Squad.2019.1080p.BluRay.x264-GiMCHi 9.84GB




◎译  名 逃组 / Hit-and-Run Squad / 肇事组 / 肇事逃逸调查组 / 肇逃计划 / 逃逸事故调查组 / 飙风特警队(台)
◎片  名 ??
◎年  代 2019
◎产  地 韩国
◎类  别 动作
◎语  言 韩语
◎上映日期 2019-01-30(韩国)
◎IMDb评分  5.4/10 from 375 users
◎片  长 133分钟
◎导  演 韩俊熙 Jun-hee Han
◎主  演 孔晓振 Hyo-jin Kong
       柳俊烈 Jun-yeol Ryu
       曹政奭 Jeong-seok Cho
       廉晶雅 Jung-ah Yum
       全慧珍 Hye-jin Jeon
       金起范 Key
       孙锡久 Sukku Son


◎标  签 韩国 | 犯罪 | 动作 | 警匪 | 2019 | 赛车 | 人性 | 剧情

◎简  介  

  对车拥有特别感觉的肇事逃逸专案组王牌巡警民载(柳俊烈饰)和从广域搜查队被降职到肇事逃逸专案组的刑警诗妍(孔晓振饰),为了抓住痴迷于速度和车,甚至不惜犯罪的在哲(曹政奭饰)而一同努力

◎获奖情况  

  第55届百想艺术大赏(2019)
  电影类 最佳新人男演员(提名) 孙锡久
Video
ID                                       : 1
Format                                   : AVC
Format/Info                              : Advanced Video Codec
Format settings                          : CABAC / 5 Ref Frames
Format settings, CABAC                   : Yes
Format settings, Reference frames        : 5 frames
Codec ID                                 : V_MPEG4/ISO/AVC
Duration                                 : 2 h 13 min
Bit rate                                 : 9 068 kb/s
Width                                    : 1 920 pixels
Height                                   : 800 pixels
Display aspect ratio                     : 2.40:1
Frame rate mode                          : Constant
Frame rate                               : 23.976 (24000/1001) FPS
Color space                              : YUV
Chroma subsampling                       : 4:2:0
Bit depth                                : 8 bits
Scan type                                : Progressive
Bits/(Pixel*Frame)                       : 0.246
Stream size                              : 8.43 GiB (86%)
Writing library                          : x264 core 159 r2991 1771b55
Encoding settings                        : cabac=1 / ref=5 / deblock=1:0:0 / analyse=0x3:0x133 / me=umh / subme=7 / psy=1 / psy_rd=1.00:0.00 / mixed_ref=1 / me_range=16 / chroma_me=1 / trellis=1 / 8x8dct=1 / cqm=0 / deadzone=21,11 / fast_pskip=0 / chroma_qp_offset=-2 / threads=12 / lookahead_threads=2 / sliced_threads=0 / nr=0 / decimate=1 / interlaced=0 / bluray_compat=0 / constrained_intra=0 / bframes=3 / b_pyramid=2 / b_adapt=2 / b_bias=0 / direct=3 / weightb=1 / open_gop=0 / weightp=2 / keyint=240 / keyint_min=23 / scenecut=40 / intra_refresh=0 / rc_lookahead=50 / rc=2pass / mbtree=1 / bitrate=9068 / ratetol=1.0 / qcomp=0.60 / qpmin=0 / qpmax=69 / qpstep=4 / cplxblur=20.0 / qblur=0.5 / ip_ratio=1.40 / aq=1:1.00
Language                                 : English
Default                                  : Yes
Forced                                   : No

Audio
ID                                       : 2
Format                                   : DTS
Format/Info                              : Digital Theater Systems
Codec ID                                 : A_DTS
Duration                                 : 2 h 13 min
Bit rate mode                            : Constant
Bit rate                                 : 1 509 kb/s
Channel(s)                               : 6 channels
Channel layout                           : C L R Ls Rs LFE
Sampling rate                            : 48.0 kHz
Frame rate                               : 93.750 FPS (512 SPF)
Bit depth                                : 24 bits
Compression mode                         : Lossy
Stream size                              : 1.40 GiB (14%)
Title                                    : Korean
Language                                 : Korean
Default                                  : Yes
Forced                                   : No

Text
ID                                       : 3
Format                                   : UTF-8
Codec ID                                 : S_TEXT/UTF8
Codec ID/Info                            : UTF-8 Plain Text
Duration                                 : 2 h 8 min
Bit rate                                 : 40 b/s
Count of elements                        : 1421
Stream size                              : 38.2 KiB (0%)
Title                                    : English
Language                                 : English
Default                                  : Yes
Forced                                   : No

Menu
00:00:00.000                             : en:Chapter 01
00:10:39.472                             : en:Chapter 02
00:21:54.522                             : en:Chapter 03
00:33:39.935                             : en:Chapter 04
00:47:59.126                             : en:Chapter 05
00:57:36.161                             : en:Chapter 06
01:07:59.200                             : en:Chapter 07
01:15:50.004                             : en:Chapter 08
01:27:12.185                             : en:Chapter 09
01:38:15.306                             : en:Chapter 10
01:50:05.265                             : en:Chapter 11
02:04:53.611                             : en:Chapter 12



                                                                                                                                                                                                        
                                                                                                                                                                                                                                                                                                                                                                                                                                                                                                                                                                                                                                                                                                                                                                                                                                                      
ee20f048937137f762b99ccd8012c23e.torrent (49.8 KB, 下载次数: 0)

回复

使用道具 举报

小黑屋|西西论坛

本网站所有资源来自网络,如无意中侵犯了您的权益,请发邮件至 [email protected],立即清除相关链接

GMT+8, 2020-3-1 01:41 , Processed in 0.061656 second(s), 23 queries .

Powered by Discuz! X3.2

© 2001-2013 Comsenz Inc.

快速回复 返回顶部 返回列表