西西论坛

 找回密码
 立即注册
搜索

决战中途岛 Midway.2019.1080p.BluRay.x264.TrueHD.7.1.Atmos-FGT 11.73GB

[复制链接]
电影首发 发表于 2020-2-8 17:39:50 | 显示全部楼层 |阅读模式
帖子完整标题:决战中途岛 Midway.2019.1080p.BluRay.x264.TrueHD.7.1.Atmos-FGT 11.73GB




◎译  名 决战中途岛 / Battle of the Midway / 中途岛 / 中途岛战役 / 中途岛海战
◎片  名 Midway
◎年  代 2019
◎产  地 中国大陆 / 美国
◎类  别 剧情 / 历史 / 战争
◎语  言 英语
◎上映日期 2019-11-08(美国/中国大陆)
◎IMDb评分  6.8/10 from 22024 users
◎片  长 138分钟
◎导  演 罗兰·艾默里奇 Roland Emmerich
◎编  剧 韦斯·图克 Wes Tooke
◎主  演 艾德·斯克林 Ed Skrein
       帕特里克·威尔森 Patrick Wilson
       伍迪·哈里森 Woody Harrelson
       卢克·伊万斯 Luke Evans
       丹尼斯·奎德 Dennis Quaid
       曼迪·摩尔 Mandy Moore
       亚历山大·路德韦格 Alexander Ludwig
       艾伦·艾克哈特 Aaron Eckhart
       达伦·克里斯 Darren Criss
       尼克·乔纳斯 Nick Jonas
       卢克·克莱恩坦克 Luke Kleintank
       杰克·韦伯 Jake Weber
       基恩·约翰逊 Keean Johnson
       浅野忠信 Tadanobu Asano
       大卫·休莱特 David Hewlett
       马克·罗斯顿 Mark Rolston
       布雷南·布朗 Brennan Brown
       詹姆斯·卡佩内罗 James Carpinello
       马修·麦考尔 Matthew MacCaull
       格雷格·霍瓦尼西安 Greg Hovanessian
       杰克·曼利 Jake Manley
       杰弗里·布莱克 Geoffrey Blake
       瑞秋·佩雷尔·佛斯基特 Rachael Perrell Fosket
       卡梅伦·布罗德 Cameron Brodeur
       杰克博·布莱尔 Jacob Blair
       克里斯蒂·布鲁克 Christie Brooke
       国村隼 Jun Kunimura
       泰勒·艾略特·伯克 Tyler Elliot Burke
       丰川悦司 Etsushi Toyokawa
       艾梅伯·瓦尔斯 Amber Walls
       莫妮卡·比卡罗娃 Monika Bicarova
       托尼·克里斯托弗 Tony Christopher
       加雷特·佐藤 Garret Sato
       罗伯特·克鲁克斯 Robert Crooks
       埃里克·戴维斯 Eric Davis
       托马斯?瓦利埃 Thomas Vallieres
       约翰·洛巴托 John Lobato
       迪索·拉莫斯 Diezel Ramos
       Kenny Leu


◎标  签 二战 | 战争 | 美国 | 历史 | 海战 | 真实事件改编 | 日本 | 2019

◎简  介  

  电影讲述的是第二次世界大战太平洋战争重要转折点——中途岛海战:经此一役,日本海军受到“降维打击”,美日海上实力反转,从而扭转了整个太平洋战场的局势。影片通过参战士兵和飞行员一个个鲜活的故事,带领观众逐步进入1942年6月初发生在太平洋中途岛附近那场令人难以置信的战争……
Video
ID                                       : 1
Format                                   : AVC
Format/Info                              : Advanced Video Codec
Format settings                          : CABAC / 5 Ref Frames
Format settings, CABAC                   : Yes
Format settings, Reference frames        : 5 frames
Codec ID                                 : V_MPEG4/ISO/AVC
Duration                                 : 2 h 18 min
Bit rate                                 : 8 387 kb/s
Width                                    : 1 920 pixels
Height                                   : 808 pixels
Display aspect ratio                     : 2.40:1
Frame rate mode                          : Constant
Frame rate                               : 23.976 (24000/1001) FPS
Color space                              : YUV
Chroma subsampling                       : 4:2:0
Bit depth                                : 8 bits
Scan type                                : Progressive
Bits/(Pixel*Frame)                       : 0.225
Stream size                              : 8.11 GiB (69%)
Title                                    : Midway.2019.1080p.BluRay.x264.TrueHD.7.1.Atmos-FGT
Writing library                          : x264 core 159 r2991 1771b55
Encoding settings                        : cabac=1 / ref=5 / deblock=1:0:0 / analyse=0x3:0x113 / me=umh / subme=8 / psy=1 / psy_rd=1.00:0.00 / mixed_ref=1 / me_range=16 / chroma_me=1 / trellis=1 / 8x8dct=1 / cqm=0 / deadzone=21,11 / fast_pskip=1 / chroma_qp_offset=-2 / threads=25 / lookahead_threads=4 / sliced_threads=0 / nr=0 / decimate=1 / interlaced=0 / bluray_compat=0 / constrained_intra=0 / bframes=3 / b_pyramid=2 / b_adapt=2 / b_bias=0 / direct=3 / weightb=1 / open_gop=0 / weightp=2 / keyint=240 / keyint_min=23 / scenecut=40 / intra_refresh=0 / rc_lookahead=50 / rc=2pass / mbtree=1 / bitrate=8387 / ratetol=1.0 / qcomp=0.60 / qpmin=0 / qpmax=69 / qpstep=4 / cplxblur=20.0 / qblur=0.5 / ip_ratio=1.40 / aq=1:1.00
Default                                  : Yes
Forced                                   : No

Audio #1
ID                                       : 2
Format                                   : MLP FBA 16-ch
Format/Info                              : Meridian Lossless Packing FBA with 16-channel presentation
Commercial name                          : Dolby TrueHD with Dolby Atmos
Codec ID                                 : A_TRUEHD
Duration                                 : 2 h 18 min
Bit rate mode                            : Variable
Bit rate                                 : 3 190 kb/s
Maximum bit rate                         : 3 894 kb/s
Channel(s)                               : 8 channels
Channel layout                           : L R C LFE Ls Rs Lb Rb
Sampling rate                            : 48.0 kHz
Frame rate                               : 1 200.000 FPS (40 SPF)
Compression mode                         : Lossless
Stream size                              : 3.08 GiB (26%)
Title                                    : Midway.2019.1080p.BluRay.x264.TrueHD.7.1.Atmos-FGT
Language                                 : English
Default                                  : Yes
Forced                                   : No
Number of dynamic objects                : 11
Bed channel count                        : 1 channel
Bed channel configuration                : LFE

Audio #2
ID                                       : 3
Format                                   : AC-3
Format/Info                              : Audio Coding 3
Commercial name                          : Dolby Digital
Codec ID                                 : A_AC3
Duration                                 : 2 h 18 min
Bit rate mode                            : Constant
Bit rate                                 : 448 kb/s
Channel(s)                               : 6 channels
Channel layout                           : L R C LFE Ls Rs
Sampling rate                            : 48.0 kHz
Frame rate                               : 31.250 FPS (1536 SPF)
Bit depth                                : 16 bits
Compression mode                         : Lossy
Stream size                              : 444 MiB (4%)
Title                                    : Midway.2019.1080p.BluRay.x264.TrueHD.7.1.Atmos-FGT
Language                                 : English
Service kind                             : Complete Main
Default                                  : No
Forced                                   : No

Text #1
ID                                       : 4
Format                                   : UTF-8
Codec ID                                 : S_TEXT/UTF8
Codec ID/Info                            : UTF-8 Plain Text
Duration                                 : 2 h 8 min
Bit rate                                 : 42 b/s
Count of elements                        : 1225
Stream size                              : 40.1 KiB (0%)
Title                                    : English-SRT
Language                                 : English
Default                                  : Yes
Forced                                   : No

Text #2
ID                                       : 5
Format                                   : UTF-8
Codec ID                                 : S_TEXT/UTF8
Codec ID/Info                            : UTF-8 Plain Text
Duration                                 : 2 h 8 min
Bit rate                                 : 48 b/s
Count of elements                        : 1444
Stream size                              : 45.4 KiB (0%)
Title                                    : English-SDH-SRT
Language                                 : English
Default                                  : No
Forced                                   : No

Text #3
ID                                       : 6
Format                                   : PGS
Muxing mode                              : zlib
Codec ID                                 : S_HDMV/PGS
Codec ID/Info                            : Picture based subtitle format used on BDs/HD-DVDs
Duration                                 : 2 h 8 min
Bit rate                                 : 30.2 kb/s
Count of elements                        : 2470
Stream size                              : 27.7 MiB (0%)
Title                                    : English-PGS
Language                                 : English
Default                                  : No
Forced                                   : No

Text #4
ID                                       : 7
Format                                   : PGS
Muxing mode                              : zlib
Codec ID                                 : S_HDMV/PGS
Codec ID/Info                            : Picture based subtitle format used on BDs/HD-DVDs
Duration                                 : 2 h 8 min
Bit rate                                 : 34.6 kb/s
Count of elements                        : 2910
Stream size                              : 31.7 MiB (0%)
Title                                    : English-SDH-PGS
Language                                 : English
Default                                  : No
Forced                                   : No

Text #5
ID                                       : 8
Format                                   : PGS
Muxing mode                              : zlib
Codec ID                                 : S_HDMV/PGS
Codec ID/Info                            : Picture based subtitle format used on BDs/HD-DVDs
Duration                                 : 2 h 8 min
Bit rate                                 : 36.6 kb/s
Count of elements                        : 2939
Stream size                              : 33.7 MiB (0%)
Title                                    : Spanish-PGS
Language                                 : Spanish
Default                                  : No
Forced                                   : No

Menu
00:00:00.000                             : en:Chapter 01
00:09:36.659                             : en:Chapter 02
00:17:37.681                             : en:Chapter 03
00:25:13.512                             : en:Chapter 04
00:30:33.623                             : en:Chapter 05
00:39:34.288                             : en:Chapter 06
00:46:13.020                             : en:Chapter 07
00:53:48.850                             : en:Chapter 08
01:00:32.962                             : en:Chapter 09
01:09:01.971                             : en:Chapter 10
01:16:11.024                             : en:Chapter 11
01:24:48.041                             : en:Chapter 12
01:31:49.545                             : en:Chapter 13
01:42:08.872                             : en:Chapter 14
01:51:17.879                             : en:Chapter 15
02:02:21.083                             : en:Chapter 16



                                                                                                                                                                                                        
                                                                                                                                                                                                                                                                                                                                                                                                                                                                                                                                                                                                                                                                                                                                                                                                                                                      
29f25aa3c5ef666a18aeaaa21230ab2c.torrent (59.19 KB, 下载次数: 0)

回复

使用道具 举报

小黑屋|西西论坛

本网站所有资源来自网络,如无意中侵犯了您的权益,请发邮件至 [email protected],立即清除相关链接

GMT+8, 2020-2-25 01:50 , Processed in 0.062697 second(s), 23 queries .

Powered by Discuz! X3.2

© 2001-2013 Comsenz Inc.

快速回复 返回顶部 返回列表