西西论坛

 找回密码
 立即注册
搜索

地狱神警/边境上的地狱 Hell.On.The.Border.2019.1080p.BluRay.x264-ROV...

[复制链接]
电影首发 发表于 2020-2-7 17:32:15 | 显示全部楼层 |阅读模式
帖子完整标题:地狱神警/边境上的地狱 Hell.On.The.Border.2019.1080p.BluRay.x264-ROVERS 8.75GB




◎译  名 地狱神警 / 边境上的地狱
◎片  名 Hell On The Border
◎年  代 2019
◎产  地 美国
◎类  别 西部
◎语  言 英语
◎上映日期 2019-12-13(美国)
◎IMDb评分  5.5/10 from 330 users
◎导  演 Wes Miller
◎编  剧 Wes Miller
◎主  演 弗兰克·格里罗 Frank Grillo
       朗·普尔曼 Ron Perlman
       扎恩·迈克拉农 Zahn McClarnon


◎标  签 美国 | 性奴,反转

◎简  介  

  影片多面展现了美国第一位黑人副警长拜斯·里弗斯的传奇故事。在他漫长的危险职业生涯中,他曾逮捕超过3000名罪犯。
Video
ID                                       : 1
Format                                   : AVC
Format/Info                              : Advanced Video Codec
Format settings                          : CABAC / 5 Ref Frames
Format settings, CABAC                   : Yes
Format settings, Reference frames        : 5 frames
Codec ID                                 : V_MPEG4/ISO/AVC
Duration                                 : 1 h 50 min
Bit rate                                 : 9 860 kb/s
Width                                    : 1 920 pixels
Height                                   : 800 pixels
Display aspect ratio                     : 2.40:1
Frame rate mode                          : Constant
Frame rate                               : 23.976 (24000/1001) FPS
Color space                              : YUV
Chroma subsampling                       : 4:2:0
Bit depth                                : 8 bits
Scan type                                : Progressive
Bits/(Pixel*Frame)                       : 0.268
Stream size                              : 7.58 GiB (87%)
Writing library                          : x264 core 159 r2991 1771b55
Encoding settings                        : cabac=1 / ref=5 / deblock=1:-3:-3 / analyse=0x3:0x113 / me=umh / subme=8 / psy=1 / psy_rd=1.00:0.00 / mixed_ref=1 / me_range=16 / chroma_me=1 / trellis=1 / 8x8dct=1 / cqm=0 / deadzone=21,11 / fast_pskip=1 / chroma_qp_offset=-2 / threads=25 / lookahead_threads=4 / sliced_threads=0 / nr=0 / decimate=1 / interlaced=0 / bluray_compat=0 / constrained_intra=0 / bframes=3 / b_pyramid=2 / b_adapt=1 / b_bias=0 / direct=3 / weightb=1 / open_gop=0 / weightp=2 / keyint=250 / keyint_min=23 / scenecut=40 / intra_refresh=0 / rc_lookahead=50 / rc=2pass / mbtree=1 / bitrate=9860 / ratetol=1.0 / qcomp=0.60 / qpmin=0 / qpmax=69 / qpstep=4 / cplxblur=20.0 / qblur=0.5 / ip_ratio=1.40 / aq=1:1.00
Language                                 : English
Default                                  : Yes
Forced                                   : No

Audio
ID                                       : 2
Format                                   : DTS
Format/Info                              : Digital Theater Systems
Codec ID                                 : A_DTS
Duration                                 : 1 h 50 min
Bit rate mode                            : Constant
Bit rate                                 : 1 509 kb/s
Channel(s)                               : 6 channels
Channel layout                           : C L R Ls Rs LFE
Sampling rate                            : 48.0 kHz
Frame rate                               : 93.750 FPS (512 SPF)
Bit depth                                : 24 bits
Compression mode                         : Lossy
Stream size                              : 1.16 GiB (13%)
Language                                 : English
Default                                  : Yes
Forced                                   : No

Text
ID                                       : 3
Format                                   : UTF-8
Codec ID                                 : S_TEXT/UTF8
Codec ID/Info                            : UTF-8 Plain Text
Duration                                 : 1 min 18 s
Bit rate                                 : 33 b/s
Count of elements                        : 13
Stream size                              : 330 Bytes (0%)
Title                                    : English Forced
Language                                 : English
Default                                  : No
Forced                                   : Yes



                                                                                                                                                                                                        
                                                                                                                                                                                                                                                                                                                                                                                                                                                                                                                                                                                                                                                                                                                                                                                                                                                      
b88d8428ab8d18385a51dab5ddf93cf2.torrent (44.66 KB, 下载次数: 0)

回复

使用道具 举报

小黑屋|西西论坛

本网站所有资源来自网络,如无意中侵犯了您的权益,请发邮件至 [email protected],立即清除相关链接

GMT+8, 2020-2-25 03:08 , Processed in 0.074193 second(s), 23 queries .

Powered by Discuz! X3.2

© 2001-2013 Comsenz Inc.

快速回复 返回顶部 返回列表