西西论坛

 找回密码
 立即注册
搜索

基督圣体 Corpus.Christi.2019.1080p.BluRay.x264-ROVERS 9.84GB

[复制链接]
电影首发 发表于 2020-2-7 17:32:15 | 显示全部楼层 |阅读模式
帖子完整标题:基督圣体 Corpus.Christi.2019.1080p.BluRay.x264-ROVERS 9.84GB




◎译  名 基督圣体 / Bo?e Cia?o / 另类神父代理人(台)
◎片  名 Corpus Christi
◎年  代 2019
◎产  地 波兰
◎类  别 剧情
◎语  言 波兰语
◎上映日期 2019-08-29(威尼斯电影节)
◎IMDb评分  7.9/10 from 1778 users
◎片  长 116分钟
◎导  演 扬·科马萨 Jan Komasa
◎编  剧 Mateusz Pacewicz
◎主  演 亚历山德拉·康涅兹娜 Aleksandra Konieczna
       伊莱扎·莱辛姆波 Eliza Rycembel
       托马斯·兹代克 Tomasz Zietek
       卢卡斯·辛拉特 Lukasz Simlat
       玛尔塔·瓦尔代拉 Marta Waldera
       托马斯·洛索 Tomasz Wlosok
       Bartosz Bielenia
       Barbara Kurzaj
       Leszek Lichota
       Zdzislaw Wardejn
       Anna Biernacik
       Lidia Bogacz
       Malwina Brych
       Bogdan Brzyski
       Juliusz Chrzastowski
       Radoslaw Ciucias
       Mateusz Czwartosz
       Andrzej Franczyk
       Helena Norowicz
       Dariusz Starczewski


◎标  签 波兰 | 2019 | 剧情 | 波兰电影 | 宗教 | 东欧 | 威尼斯电影节 | 波蘭

◎简  介  

  本片由扬·科马萨执导,讲述20岁的丹尼尔在青年管教所生活时所经历的精神转变。他想要成为一名牧师,但由于他的犯罪记录,这让他的理想变得不可能。而当他被送到一个小镇的木匠工作室工作时,他乔装成一名牧师,并阴差阳错地接管了教区。年轻、有魅力的传教士来到这个刚刚发生过悲剧的社区,社区的重建给了丹尼尔无限机会。

◎获奖情况  

  第92届奥斯卡金像奖(2020)
  最佳国际电影长片(提名)

  第76届威尼斯电影节(2019)
  欧洲电影联盟奖 威尼斯日最佳影片(提名) 扬·科马萨
Video
ID                                       : 1
Format                                   : AVC
Format/Info                              : Advanced Video Codec
Format settings                          : CABAC / 5 Ref Frames
Format settings, CABAC                   : Yes
Format settings, Reference frames        : 5 frames
Codec ID                                 : V_MPEG4/ISO/AVC
Duration                                 : 1 h 54 min
Bit rate                                 : 10.7 Mb/s
Width                                    : 1 920 pixels
Height                                   : 808 pixels
Display aspect ratio                     : 2.40:1
Frame rate mode                          : Constant
Frame rate                               : 24.000 FPS
Color space                              : YUV
Chroma subsampling                       : 4:2:0
Bit depth                                : 8 bits
Scan type                                : Progressive
Bits/(Pixel*Frame)                       : 0.289
Stream size                              : 8.63 GiB (88%)
Writing library                          : x264 core 159 r2991 1771b55
Encoding settings                        : cabac=1 / ref=5 / deblock=1:-3:-3 / analyse=0x3:0x133 / me=umh / subme=9 / psy=1 / psy_rd=1.00:0.00 / mixed_ref=1 / me_range=16 / chroma_me=1 / trellis=2 / 8x8dct=1 / cqm=0 / deadzone=21,11 / fast_pskip=0 / chroma_qp_offset=-2 / threads=25 / lookahead_threads=2 / sliced_threads=0 / nr=0 / decimate=1 / interlaced=0 / bluray_compat=0 / constrained_intra=0 / bframes=3 / b_pyramid=2 / b_adapt=2 / b_bias=0 / direct=3 / weightb=1 / open_gop=0 / weightp=2 / keyint=250 / keyint_min=24 / scenecut=40 / intra_refresh=0 / rc_lookahead=60 / rc=2pass / mbtree=1 / bitrate=10742 / ratetol=1.0 / qcomp=0.60 / qpmin=10 / qpmax=69 / qpstep=4 / cplxblur=20.0 / qblur=0.5 / ip_ratio=1.40 / aq=1:0.70
Default                                  : Yes
Forced                                   : No

Audio
ID                                       : 2
Format                                   : DTS
Format/Info                              : Digital Theater Systems
Codec ID                                 : A_DTS
Duration                                 : 1 h 54 min
Bit rate mode                            : Constant
Bit rate                                 : 1 509 kb/s
Channel(s)                               : 6 channels
Channel layout                           : C L R Ls Rs LFE
Sampling rate                            : 48.0 kHz
Frame rate                               : 93.750 FPS (512 SPF)
Bit depth                                : 16 bits
Compression mode                         : Lossy
Stream size                              : 1.21 GiB (12%)
Title                                    : Polish DTS 1509 kbps
Language                                 : Polish
Default                                  : Yes
Forced                                   : No

Text
ID                                       : 3
Format                                   : UTF-8
Codec ID                                 : S_TEXT/UTF8
Codec ID/Info                            : UTF-8 Plain Text
Duration                                 : 1 h 52 min
Bit rate                                 : 32 b/s
Count of elements                        : 975
Stream size                              : 26.6 KiB (0%)
Title                                    : English
Language                                 : English
Default                                  : Yes
Forced                                   : No

Menu
00:00:00.000                             : :
00:07:59.541                             : :
00:14:26.583                             : :
00:21:54.708                             : :
00:28:14.958                             : :
00:36:55.166                             : :
00:43:01.750                             : :
00:50:56.750                             : :
00:57:42.833                             : :
01:04:43.916                             : :
01:10:48.291                             : :
01:19:52.416                             : :
01:25:52.208                             : :
01:33:54.458                             : :
01:41:39.375                             : :
01:49:30.166                             : :



                                                                                                                                                                                                        
                                                                                                                                                                                                                                                                                                                                                                                                                                                                                                                                                                                                                                                                                                                                                                                                                                                      
16bbf7f9aa674213a9b62c02d0eaecd7.torrent (49.92 KB, 下载次数: 0)

回复

使用道具 举报

小黑屋|西西论坛

本网站所有资源来自网络,如无意中侵犯了您的权益,请发邮件至 [email protected],立即清除相关链接

GMT+8, 2020-3-1 00:09 , Processed in 0.062686 second(s), 23 queries .

Powered by Discuz! X3.2

© 2001-2013 Comsenz Inc.

快速回复 返回顶部 返回列表