西西论坛

 找回密码
 立即注册
搜索

[BD-4K] 原钻/未切割宝石 Uncut.Gems.2019.2160p.NF.WEBRip.DDP5.1.Atmos.x264-NTb ...

[复制链接]
电影首发 发表于 2020-2-3 12:07:39 | 显示全部楼层 |阅读模式
帖子完整标题:原钻/未切割宝石 Uncut.Gems.2019.2160p.NF.WEBRip.DDP5.1.Atmos.x264-NTb 47.44GB




◎译  名 原钻 / 未切割宝石 / 未切割的宝石 / 未切割的钻石 / 未琢之石(豆友译名)
◎片  名 Uncut Gems
◎年  代 2019
◎产  地 美国
◎类  别 剧情 / 喜剧 / 犯罪
◎语  言 英语
◎上映日期 2019-08-30(特柳赖德电影节) / 2019-12-25(美国) / 2020-01-31(Netflix)
◎IMDb评分  8.0/10 from 33040 users
◎片  长 135分钟
◎导  演 本·萨弗迪 Ben Safdie / 约书亚·萨弗迪 Joshua Safdie
◎编  剧 罗纳德·布隆斯坦 Ronald Bronstein / 本·萨弗迪 Ben Safdie / 约书亚·萨弗迪 Joshua Safdie
◎主  演 亚当·桑德勒 Adam Sandler
       茱莉娅·福克斯 Julia Fox
       凯文·加内特 Kevin Garnett
       威肯 The Weeknd
       伊迪娜·门泽尔 Idina Menzel
       乔纳森·阿兰巴耶夫 Jonathan Aranbayev
       雅各布·伊吉尔斯基 Jacob Igielski
       诺亚·费舍尔 Noa Fisher
       帕洛玛·艾尔瑟瑟 Paloma Elsesser
       勒凯斯·斯坦菲尔德 Lakeith Stanfield
       埃里克·博高森 Eric Bogosian
       基思·威廉姆斯·理查兹 Keith Williams Richards
       汤米·科米尼克 Tommy Kominik
       路易·安东尼·阿里亚斯 Louis Anthony Arias
       肖恩·林金 Sean Ringgold
       贾德·赫希 Judd Hirsch
       约翰·阿莫斯 John Amos
       布莱斯·科里根 Blaise Corrigan
       罗比·德拉费勒 Robbie DeRaffele
       安赫·道格 Anh Duong
       迈克·弗朗西萨 Mike Francesa
       庞·克莱门捷夫 Pom Klementieff
       娜塔莎·雷昂 Natasha Lyonne
       乔恩·内卡杰 Jon Necaj
       尼克·波托兰宁 Nick Poltoranin
       杰克·莱恩 Jake Ryan
       蒂尔达·斯文顿 Tilda Swinton


◎标  签 美国 | 犯罪 | 2019 | 剧情 | 黑色幽默 | 悬疑 | 喜剧 | 惊悚

◎简  介  

  影片讲述了一位纽约钻石店老板Howard Ratner(亚当·桑德勒饰),他嗜赌成瘾,婚姻岌岌可危,还有一个对他不忠诚的女友。Howard Ratner欠赌徒(埃里克勃格森饰)钱,而打手们也一直威胁着让他还钱。当他买了一批价值数百万美元的稀有的未切割埃塞俄比亚蛋白石,他觉得自己的霉运会就此终结。这些石头本来是打算用做拍卖的,但是当波士顿凯尔特人超级球星凯文·加内特走进宝石店,希望租下这些石头,因为它们可以给他在NBA总决赛上带来好运,事态也就越发复杂了起来 。

◎获奖情况  

  第85届纽约影评人协会奖(2019)
  最佳导演 本·萨弗迪 / 约书亚·萨弗迪

  第91届美国国家评论协会奖(2019)
  最佳男主角 亚当·桑德勒
  最佳原创剧本 约书亚·萨弗迪 / 罗纳德·布隆斯坦 / 本·萨弗迪
  年度佳片

  第25届美国评论家选择电影奖(2020)
  最佳影片(提名)
  最佳导演(提名) 约书亚·萨弗迪 / 本·萨弗迪
  最佳男主角(提名) 亚当·桑德勒
  最佳剪辑(提名)

  第35届美国独立精神奖(2020)
  最佳影片(提名)
  最佳导演(提名) 本·萨弗迪 / 约书亚·萨弗迪
  最佳男主角(提名) 亚当·桑德勒
  最佳剧本(提名) 本·萨弗迪 / 罗纳德·布隆斯坦 / 约书亚·萨弗迪
  最佳剪辑(提名)

  第29届哥谭独立电影奖(2019)
  最佳影片(提名)
  最佳男演员(提名) 亚当·桑德勒
  年度突破演员(提名) 茱莉娅·福克斯

  第24届金卫星奖(2020)
  电影部门 最佳喜剧/音乐片(提名)
  电影部门 喜剧/音乐片最佳男主角(提名) 亚当·桑德勒

  第54届美国国家影评人协会奖(2020)
  最佳男主角(提名) 亚当·桑德勒

  第40届波士顿影评人协会奖(2019)
  最佳男主角 亚当·桑德勒
  最佳剪辑(提名) 本·萨弗迪 / 罗纳德·布隆斯坦

  第45届洛杉矶影评人协会奖(2019)
  最佳剪辑(提名)

  第32届芝加哥影评人协会奖(2019)
  最佳男主角(提名) 亚当·桑德勒
  最佳剪辑(提名)
  最佳原创配乐(提名) 丹尼尔·罗帕汀
  最具潜力演员(提名) 茱莉娅·福克斯

  第4届亚特兰大影评人协会奖(2019)
  十佳影片

  第23届美国在线影评人协会奖(2020)
  最佳影片(提名)
  最佳男主角(提名) 亚当·桑德勒
[quote]Video
ID                                       : 1
Format                                   : AVC
Format/Info                              : Advanced Video Codec
Format settings                          : CABAC / 7 Ref Frames
Format settings, CABAC                   : Yes
Format settings, Reference frames        : 7 frames
Codec ID                                 : V_MPEG4/ISO/AVC
Duration                                 : 2 h 15 min
Bit rate                                 : 49.2 Mb/s
Width                                    : 3 840 pixels
Height                                   : 1 608 pixels
Display aspect ratio                     : 2.40:1
Frame rate mode                          : Constant
Frame rate                               : 24.000 FPS
Color space                              : YUV
Chroma subsampling                       : 4:2:0
Bit depth                                : 8 bits
Scan type                                : Progressive
Bits/(Pixel*Frame)                       : 0.332
Stream size                              : 46.7 GiB (98%)
Writing library                          : x264 core 157 r2969 d4099dd
Encoding settings                        : cabac=1 / ref=7 / deblock=1:-3:-3 / analyse=0x3:0x133 / me=umh / subme=10 / psy=1 / psy_rd=1.00:0.15 / mixed_ref=1 / me_range=48 / chroma_me=1 / trellis=2 / 8x8dct=1 / cqm=0 / deadzone=21,11 / fast_pskip=0 / chroma_qp_offset=-3 / threads=24 / lookahead_threads=4 / sliced_threads=0 / nr=0 / decimate=0 / interlaced=0 / bluray_compat=0 / constrained_intra=0 / bframes=8 / b_pyramid=2 / b_adapt=2 / b_bias=0 / direct=3 / weightb=1 / open_gop=0 / weightp=2 / keyint=250 / keyint_min=24 / scenecut=40 / intra_refresh=0 / rc=crf / mbtree=0 / crf=21.0 / qcomp=0.60 / qpmin=0 / qpmax=69 / qpstep=4 / ip_ratio=1.30 / pb_ratio=1.20 / aq=3:0.80
Language                                 : English
Default                                  : Yes
Forced                                   : No

Audio
ID                                       : 2
Format                                   : E-AC-3 JOC
Format/Info                              : Enhanced AC-3 with Joint Object Coding
Commercial name                          : Dolby Digital Plus with Dolby Atmos
Codec ID                                 : A_EAC3
Duration                                 : 2 h 15 min
Bit rate mode                            : Constant
Bit rate                                 : 768 kb/s
Channel(s)                               : 6 channels
Channel layout                           : L R C LFE Ls Rs
Sampling rate                            : 48.0 kHz
Frame rate                               : 31.250 FPS (1536 SPF)
Compression mode                         : Lossy
Stream size                              : 746 MiB (2%)
Title                                    : English
Language                                 : English
Service kind                             : Complete Main
Default                                  : Yes
Forced                                   : No
Complexity index                         : 16
Number of dynamic objects                : 15
Bed channel count                        : 1 channel
Bed channel configuration                : LFE

Text #1
ID                                       : 3
Format                                   : UTF-8
Codec ID                                 : S_TEXT/UTF8
Codec ID/Info                            : UTF-8 Plain Text
Duration                                 : 2 h 9 min
Bit rate                                 : 107 b/s
Count of elements                        : 2584
Stream size                              : 102 KiB (0%)
Language                                 : English
Default                                  : No
Forced                                   : No

Text #2
ID                                       : 4
Format                                   : UTF-8
Codec ID                                 : S_TEXT/UTF8
Codec ID/Info                            : UTF-8 Plain Text
Duration                                 : 2 h 13 min
Bit rate                                 : 114 b/s
Count of elements                        : 2730
Stream size                              : 112 KiB (0%)
Title                                    : SDH
Language                                 : English
Default                                  : No
Forced                                   : No

Text #3
ID                                       : 5
Format                                   : UTF-8
Codec ID                                 : S_TEXT/UTF8
Codec ID/Info                            : UTF-8 Plain Text
Duration                                 : 2 h 14 min
Bit rate                                 : 143 b/s
Count of elements                        : 2553
Stream size                              : 141 KiB (0%)
Language                                 : Arabic
Default                                  : No
Forced                                   : No

Text #4
ID                                       : 6
Format                                   : UTF-8
Codec ID                                 : S_TEXT/UTF8
Codec ID/Info                            : UTF-8 Plain Text
Duration                                 : 2 h 14 min
Bit rate                                 : 81 b/s
Count of elements                        : 2512
Stream size                              : 79.7 KiB (0%)
Language                                 : Czech
Default                                  : No
Forced                                   : No

Text #5
ID                                       : 7
Format                                   : UTF-8
Codec ID                                 : S_TEXT/UTF8
Codec ID/Info                            : UTF-8 Plain Text
Duration                                 : 2 h 14 min
Bit rate                                 : 77 b/s
Count of elements                        : 2183
Stream size                              : 76.4 KiB (0%)
Language                                 : Danish
Default                                  : No
Forced                                   : No

Text #6
ID                                       : 8
Format                                   : UTF-8
Codec ID                                 : S_TEXT/UTF8
Codec ID/Info                            : UTF-8 Plain Text
Duration                                 : 2 h 14 min
Bit rate                                 : 81 b/s
Count of elements                        : 2377
Stream size                              : 80.0 KiB (0%)
Language                                 : German
Default                                  : No
Forced                                   : No

Text #7
ID                                       : 9
Format                                   : UTF-8
Codec ID                                 : S_TEXT/UTF8
Codec ID/Info                            : UTF-8 Plain Text
Duration                                 : 2 h 14 min
Bit rate                                 : 134 b/s
Count of elements                        : 2474
Stream size                              : 132 KiB (0%)
Language                                 : Greek
Default                                  : No
Forced                                   : No

Text #8
ID                                       : 10
Format                                   : UTF-8
Codec ID                                 : S_TEXT/UTF8
Codec ID/Info                            : UTF-8 Plain Text
Duration                                 : 2 h 14 min
Bit rate                                 : 77 b/s
Count of elements                        : 2514
Stream size                              : 76.4 KiB (0%)
Language                                 : Spanish
Default                                  : No
Forced                                   : No

Text #9
ID                                       : 11
Format                                   : UTF-8
Codec ID                                 : S_TEXT/UTF8
Codec ID/Info                            : UTF-8 Plain Text
Duration                                 : 2 h 14 min
Bit rate                                 : 73 b/s
Count of elements                        : 2556
Stream size                              : 72.1 KiB (0%)
Title                                    : European
Language                                 : Spanish
Default                                  : No
Forced                                   : No

Text #10
ID                                       : 12
Format                                   : UTF-8
Codec ID                                 : S_TEXT/UTF8
Codec ID/Info                            : UTF-8 Plain Text
Duration                                 : 2 h 14 min
Bit rate                                 : 80 b/s
Count of elements                        : 2337
Stream size                              : 79.1 KiB (0%)
Language                                 : Finnish
Default                                  : No
Forced                                   : No

Text #11
ID                                       : 13
Format                                   : UTF-8
Codec ID                                 : S_TEXT/UTF8
Codec ID/Info                            : UTF-8 Plain Text
Duration                                 : 2 h 14 min
Bit rate                                 : 74 b/s
Count of elements                        : 2424
Stream size                              : 73.5 KiB (0%)
Language                                 : French
Default                                  : No
Forced                                   : No

Text #12
ID                                       : 14
Format                                   : UTF-8
Codec ID                                 : S_TEXT/UTF8
Codec ID/Info                            : UTF-8 Plain Text
Duration                                 : 2 h 14 min
Bit rate                                 : 141 b/s
Count of elements                        : 2314
Stream size                              : 138 KiB (0%)
Language                                 : Hebrew
Default                                  : No
Forced                                   : No

Text #13
ID                                       : 15
Format                                   : UTF-8
Codec ID                                 : S_TEXT/UTF8
Codec ID/Info                            : UTF-8 Plain Text
Duration                                 : 2 h 14 min
Bit rate                                 : 240 b/s
Count of elements                        : 2555
Stream size                              : 236 KiB (0%)
Language                                 : Hindi
Default                                  : No
Forced                                   : No

Text #14
ID                                       : 16
Format                                   : UTF-8
Codec ID                                 : S_TEXT/UTF8
Codec ID/Info                            : UTF-8 Plain Text
Duration                                 : 2 h 14 min
Bit rate                                 : 81 b/s
Count of elements                        : 2326
Stream size                              : 79.8 KiB (0%)
Language                                 : Hungarian
Default                                  : No
Forced                                   : No

Text #15
ID                                       : 17
Format                                   : UTF-8
Codec ID                                 : S_TEXT/UTF8
Codec ID/Info                            : UTF-8 Plain Text
Duration                                 : 2 h 14 min
Bit rate                                 : 70 b/s
Count of elements                        : 2522
Stream size                              : 69.4 KiB (0%)
Language                                 : Indonesian
Default                                  : No
Forced                                   : No

Text #16
ID                                       : 18
Format                                   : UTF-8
Codec ID                                 : S_TEXT/UTF8
Codec ID/Info                            : UTF-8 Plain Text
Duration                                 : 2 h 14 min
Bit rate                                 : 83 b/s
Count of elements                        : 2549
Stream size                              : 82.1 KiB (0%)
Language                                 : Italian
Default                                  : No
Forced                                   : No

Text #17
ID                                       : 19
Format                                   : UTF-8
Codec ID                                 : S_TEXT/UTF8
Codec ID/Info                            : UTF-8 Plain Text
Duration                                 : 2 h 14 min
Bit rate                                 : 68 b/s
Count of elements                        : 2654
Stream size                              : 66.9 KiB (0%)
Language                                 : Japanese
Default                                  : No
Forced                                   : No

Text #18
ID                                       : 20
Format                                   : UTF-8
Codec ID                                 : S_TEXT/UTF8
Codec ID/Info                            : UTF-8 Plain Text
Duration                                 : 2 h 14 min
Bit rate                                 : 104 b/s
Count of elements                        : 2565
Stream size                              : 103 KiB (0%)
Language                                 : Korean
Default                                  : No
Forced                                   : No

Text #19
ID                                       : 21
Format                                   : UTF-8
Codec ID                                 : S_TEXT/UTF8
Codec ID/Info                            : UTF-8 Plain Text
Duration                                 : 2 h 14 min
Bit rate                                 : 75 b/s
Count of elements                        : 1928
Stream size                              : 74.4 KiB (0%)
Language                                 : Norwegian Bokmal
Default                                  : No
Forced                                   : No

Text #20
ID                                       : 22
Format                                   : UTF-8
Codec ID                                 : S_TEXT/UTF8
Codec ID/Info                            : UTF-8 Plain Text
Duration                                 : 2 h 14 min
Bit rate                                 : 77 b/s
Count of elements                        : 2235
Stream size                              : 76.2 KiB (0%)
Language                                 : Dutch
Default                                  : No
Forced                                   : No

Text #21
ID                                       : 23
Format                                   : UTF-8
Codec ID                                 : S_TEXT/UTF8
Codec ID/Info                            : UTF-8 Plain Text
Duration                                 : 2 h 14 min
Bit rate                                 : 72 b/s
Count of elements                        : 2538
Stream size                              : 71.1 KiB (0%)
Language                                 : Polish
Default                                  : No
Forced                                   : No

Text #22
ID                                       : 24
Format                                   : UTF-8
Codec ID                                 : S_TEXT/UTF8
Codec ID/Info                            : UTF-8 Plain Text
Duration                                 : 2 h 14 min
Bit rate                                 : 83 b/s
Count of elements                        : 2528
Stream size                              : 82.4 KiB (0%)
Language                                 : Portuguese
Default                                  : No
Forced                                   : No

Text #23
ID                                       : 25
Format                                   : UTF-8
Codec ID                                 : S_TEXT/UTF8
Codec ID/Info                            : UTF-8 Plain Text
Duration                                 : 2 h 14 min
Bit rate                                 : 82 b/s
Count of elements                        : 2645
Stream size                              : 81.5 KiB (0%)
Title                                    : Brazilian
Language                                 : Portuguese
Default                                  : No
Forced                                   : No

Text #24
ID                                       : 26
Format                                   : UTF-8
Codec ID                                 : S_TEXT/UTF8
Codec ID/Info                            : UTF-8 Plain Text
Duration                                 : 2 h 14 min
Bit rate                                 : 83 b/s
Count of elements                        : 2520
Stream size                              : 82.2 KiB (0%)
Language                                 : Romanian
Default                                  : No
Forced                                   : No

Text #25
ID                                       : 27
Format                                   : UTF-8
Codec ID                                 : S_TEXT/UTF8
Codec ID/Info                            : UTF-8 Plain Text
Duration                                 : 2 h 14 min
Bit rate                                 : 133 b/s
Count of elements                        : 2519
Stream size                              : 131 KiB (0%)
Language                                 : Russian
Default                                  : No
Forced                                   : No

Text #26
ID                                       : 28
Format                                   : UTF-8
Codec ID                                 : S_TEXT/UTF8
Codec ID/Info                            : UTF-8 Plain Text
Duration                                 : 2 h 14 min
Bit rate                                 : 74 b/s
Count of elements                        : 2181
Stream size                              : 72.8 KiB (0%)
Language                                 : Swedish
Default                                  : No
Forced                                   : No

Text #27
ID                                       : 29
Format                                   : UTF-8
Codec ID                                 : S_TEXT/UTF8
Codec ID/Info                            : UTF-8 Plain Text
Duration                                 : 2 h 14 min
Bit rate                                 : 257 b/s
Count of elements                        : 2545
Stream size                              : 253 KiB (0%)
Language                                 : Thai
Default                                  : No
Forced                                   : No

Text #28
ID                                       : 30
Format                                   : UTF-8
Codec ID                                 : S_TEXT/UTF8
Codec ID/Info                            : UTF-8 Plain Text

回复

使用道具 举报

小黑屋|西西论坛

本网站所有资源来自网络,如无意中侵犯了您的权益,请发邮件至 [email protected],立即清除相关链接

GMT+8, 2020-2-28 17:03 , Processed in 0.057002 second(s), 20 queries .

Powered by Discuz! X3.2

© 2001-2013 Comsenz Inc.

快速回复 返回顶部 返回列表