西西论坛

 找回密码
 立即注册
搜索

猴子/失控少年兵团 Monos.2019.SUBBED.1080p.BluRay.x264-USURY 7.65GB

[复制链接]
电影首发 发表于 2020-2-3 10:12:12 | 显示全部楼层 |阅读模式
帖子完整标题:猴子/失控少年兵团 Monos.2019.SUBBED.1080p.BluRay.x264-USURY 7.65GB




◎译  名 猴子 / 失控少年兵团(台)
◎片  名 Monos
◎年  代 2019
◎产  地 哥伦比亚 / 阿根廷 / 荷兰 / 德国 / 瑞典 / 乌拉圭 / 美国 / 瑞士 / 丹麦
◎类  别 剧情 / 惊悚
◎语  言 西班牙语 / 英语
◎上映日期 2019-01-26(圣丹斯电影节) / 2019-08-15(哥伦比亚)
◎IMDb评分  7.3/10 from 6045 users
◎片  长 102分钟
◎导  演 亚历桑德罗·朗德思 Alejandro Landes
◎编  剧 亚历桑德罗·朗德思 Alejandro Landes / 亚历克西斯·多斯·桑托斯 Alexis Dos Santos
◎主  演 索非娅·布埃纳文图拉 Sofia Buenaventura
       朱利安·希拉尔多 Julian Giraldo
       凯伦·金特罗 Karen Quintero
       劳拉·卡斯特里隆 Laura Castrillón
       德伊比·鲁埃达 Deiby Rueda
       保罗·库比德斯 Paul Cubides
       斯奈德·卡斯特罗 Sneider Castro
       莫伊塞斯·阿里亚斯 Moises Arias
       朱丽安妮·尼科尔森 Julianne Nicholson
       威尔逊·萨拉查 Wilson Salazar
       豪尔赫·罗曼 Jorge Román


◎标  签 哥伦比亚 | 2019 | 剧情 | 人性 | 惊悚 | 文艺 | 战争 | 圣丹斯电影节

◎简  介  

  讲述了八个哥伦比亚游击队少年在山区基地中看守一名美国俘虏的故事,他们经历的一系列事件让人开始反思成长、反叛、规训等主题。雨林、山丘、激流的壮丽背景与叙事的残酷相辅相成,精彩的配乐和变幻莫测的剪辑同样令人赞叹。本片获第35届圣丹斯电影节评审团特别奖。

◎获奖情况  

  第69届柏林国际电影节(2019)
  泰迪熊奖 最佳电影(提名) 阿莱汉德罗·朗德思

  第34届西班牙戈雅奖(2020)
  最佳西班牙语外国片(提名)

  第35届圣丹斯电影节(2019)
  评审团大奖 世界电影单元剧情片(提名) 阿莱汉德罗·朗德思
  评审团特别奖 世界电影单元剧情片

  第67届圣塞巴斯蒂安国际电影节(2019)
  地平线大奖(提名) 阿莱汉德罗·朗德思

  第34届美国摄影协会奖(2020)
  聚光灯奖(提名) 加斯佩尔·沃尔夫

  第22届英国独立电影奖(2019)
  最佳外国独立电影(提名)

  第40届伦敦影评人协会奖(2020)
  年度外语片(提名)
  技术成就奖(提名) 加斯佩尔·沃尔夫

  第23届美国在线影评人协会奖(2020)
  最佳非英语片(提名)
Video
ID                                       : 1
Format                                   : AVC
Format/Info                              : Advanced Video Codec
Format settings                          : CABAC / 5 Ref Frames
Format settings, CABAC                   : Yes
Format settings, Reference frames        : 5 frames
Codec ID                                 : V_MPEG4/ISO/AVC
Duration                                 : 1 h 43 min
Bit rate                                 : 9 073 kb/s
Width                                    : 1 920 pixels
Height                                   : 808 pixels
Display aspect ratio                     : 2.40:1
Frame rate mode                          : Constant
Frame rate                               : 23.976 (24000/1001) FPS
Color space                              : YUV
Chroma subsampling                       : 4:2:0
Bit depth                                : 8 bits
Scan type                                : Progressive
Bits/(Pixel*Frame)                       : 0.244
Stream size                              : 6.56 GiB (86%)
Writing library                          : x264 core 157 r2969 d4099dd
Encoding settings                        : cabac=1 / ref=5 / deblock=1:-3:-3 / analyse=0x3:0x133 / me=umh / subme=9 / psy=1 / psy_rd=1.00:0.00 / mixed_ref=1 / me_range=16 / chroma_me=1 / trellis=2 / 8x8dct=1 / cqm=0 / deadzone=21,11 / fast_pskip=0 / chroma_qp_offset=-2 / threads=18 / lookahead_threads=1 / sliced_threads=0 / nr=0 / decimate=1 / interlaced=0 / bluray_compat=0 / constrained_intra=0 / bframes=3 / b_pyramid=2 / b_adapt=1 / b_bias=0 / direct=3 / weightb=1 / open_gop=0 / weightp=2 / keyint=240 / keyint_min=24 / scenecut=40 / intra_refresh=0 / rc_lookahead=50 / rc=2pass / mbtree=1 / bitrate=9073 / ratetol=1.0 / qcomp=0.60 / qpmin=0 / qpmax=69 / qpstep=4 / cplxblur=20.0 / qblur=0.5 / ip_ratio=1.40 / aq=1:1.00
Language                                 : English
Default                                  : Yes
Forced                                   : No

Audio
ID                                       : 2
Format                                   : DTS
Format/Info                              : Digital Theater Systems
Codec ID                                 : A_DTS
Duration                                 : 1 h 43 min
Bit rate mode                            : Constant
Bit rate                                 : 1 509 kb/s
Channel(s)                               : 6 channels
Channel layout                           : C L R Ls Rs LFE
Sampling rate                            : 48.0 kHz
Frame rate                               : 93.750 FPS (512 SPF)
Bit depth                                : 24 bits
Compression mode                         : Lossy
Stream size                              : 1.09 GiB (14%)
Language                                 : Spanish
Default                                  : Yes
Forced                                   : No

Menu
00:00:00.000                             : en:00:00:00.000
00:10:00.934                             : en:00:10:00.934
00:20:02.034                             : en:00:20:02.034
00:30:01.967                             : en:00:30:01.967
00:40:02.483                             : en:00:40:02.483
00:50:04.960                             : en:00:50:04.960
01:00:04.059                             : en:01:00:04.059
01:10:04.283                             : en:01:10:04.283
01:20:05.050                             : en:01:20:05.050
01:30:05.817                             : en:01:30:05.817
01:39:28.713                             : en:01:39:28.713



                                                                                                                                                                                                        
                                                                                                                                                                                                                                                                                                                                                                                                                                                                                                                                                                                                                                                                                                                                                                                                                                                      
f59c8e7891b963855652e808aefa65f5.torrent (38.88 KB, 下载次数: 0)

回复

使用道具 举报

小黑屋|西西论坛

本网站所有资源来自网络,如无意中侵犯了您的权益,请发邮件至 [email protected],立即清除相关链接

GMT+8, 2020-2-25 03:17 , Processed in 0.063373 second(s), 23 queries .

Powered by Discuz! X3.2

© 2001-2013 Comsenz Inc.

快速回复 返回顶部 返回列表