西西论坛

 找回密码
 立即注册
搜索

第一滴血5:最后的血 Rambo.Last.Blood.2019.EXTENDED.1080p.BluRay.x264-S...

[复制链接]
电影首发 发表于 2020-2-3 10:12:12 | 显示全部楼层 |阅读模式
帖子完整标题:第一滴血5:最后的血 Rambo.Last.Blood.2019.EXTENDED.1080p.BluRay.x264-SPRiNTER 7.94GB




◎译  名 第一滴血5:最后的血 / Rambo 5 / Rambo 5: Last Blood / Rambo V / Rambo V: Last Blood / 兰博5:最后一滴血 / 第一滴血5 / 第一滴血:最后一战 / 第一滴血:终极血战(港) / 蓝波:最后一滴血(台)
◎片  名 Rambo: Last Blood
◎年  代 2019
◎产  地 美国 / 西班牙 / 保加利亚
◎类  别 动作 / 惊悚 / 冒险
◎语  言 英语 / 西班牙语
◎上映日期 2019-09-18(印度尼西亚) / 2019-09-20(美国) / 2019-09-27(西班牙)
◎IMDb评分  6.2/10 from 53662 users
◎片  长 89分钟
◎导  演 阿德里安·格鲁伯格 Adrian Grunberg
◎编  剧 马修·西鲁尼克 Matthew Cirulnick / 西尔维斯特·史泰龙 Sylvester Stallone / 丹·戈登 Dan Gordon / 大卫·莫瑞尔 David Morrell
◎主  演 西尔维斯特·史泰龙 Sylvester Stallone
       帕斯·贝加 Paz Vega
       塞尔吉奥·佩里斯-门切塔 Sergio Peris-Mencheta
       艾德里安娜·巴拉扎 Adriana Barraza
       维特·蒙雷尔 Yvette Monreal
       吉妮·金 Genie Kim
       华金·科西奥 Joaquín Cosio
       帕斯卡西奥·洛佩斯 Pascacio López
       奥斯卡·贾恩那达 óscar Jaenada
       亚历山大·迪米特罗夫 Alexander Dimitrov
       亚伦·科恩 Aaron Cohen
       尼克·威特曼 Nick Wittman
       杰西卡·马德森 Jessica Madsen
       路易·曼迪勒 Louis Mandylor
       欧文·戴维斯 Owen Davis
       阿塔纳斯·斯雷布雷夫 Atanas Srebrev
       乔治·曼切夫 Georgi Manchev


◎标  签 动作 | 暴力 | 硬汉 | 血腥 | 美国 | 经典 | 2019 | 犯罪

◎简  介  

  西尔维斯特·史泰龙回归[第一滴血5],并有望执导。除主演外,据悉史泰龙将操刀剧本,故事围绕兰博为营救朋友之女与墨西哥毒枭展开殊死搏斗展开。制片艾威·勒纳([敢死队]系列)。该系列首部于1982年上映,2008年史泰龙曾自导自演[第一滴血4]。[第一滴血5]将在本届戛纳电影节预售,9月开拍。
Video
ID                                       : 1
Format                                   : AVC
Format/Info                              : Advanced Video Codec
Format settings                          : CABAC / 5 Ref Frames
Format settings, CABAC                   : Yes
Format settings, Reference frames        : 5 frames
Codec ID                                 : V_MPEG4/ISO/AVC
Duration                                 : 1 h 40 min
Bit rate                                 : 9 807 kb/s
Width                                    : 1 920 pixels
Height                                   : 808 pixels
Display aspect ratio                     : 2.40:1
Frame rate mode                          : Constant
Frame rate                               : 23.976 (24000/1001) FPS
Color space                              : YUV
Chroma subsampling                       : 4:2:0
Bit depth                                : 8 bits
Scan type                                : Progressive
Bits/(Pixel*Frame)                       : 0.264
Stream size                              : 6.88 GiB (87%)
Writing library                          : x264 core 159 r2991 1771b55
Encoding settings                        : cabac=1 / ref=5 / deblock=1:-3:-3 / analyse=0x3:0x133 / me=umh / subme=9 / psy=1 / psy_rd=1.00:0.00 / mixed_ref=1 / me_range=16 / chroma_me=1 / trellis=2 / 8x8dct=1 / cqm=0 / deadzone=21,11 / fast_pskip=0 / chroma_qp_offset=-2 / threads=25 / lookahead_threads=2 / sliced_threads=0 / nr=0 / decimate=1 / interlaced=0 / bluray_compat=0 / constrained_intra=0 / bframes=3 / b_pyramid=2 / b_adapt=2 / b_bias=0 / direct=3 / weightb=1 / open_gop=0 / weightp=2 / keyint=250 / keyint_min=23 / scenecut=40 / intra_refresh=0 / rc_lookahead=60 / rc=2pass / mbtree=1 / bitrate=9807 / ratetol=1.0 / qcomp=0.60 / qpmin=10 / qpmax=69 / qpstep=4 / cplxblur=20.0 / qblur=0.5 / ip_ratio=1.40 / aq=1:0.70
Default                                  : Yes
Forced                                   : No

Audio
ID                                       : 2
Format                                   : DTS
Format/Info                              : Digital Theater Systems
Codec ID                                 : A_DTS
Duration                                 : 1 h 40 min
Bit rate mode                            : Constant
Bit rate                                 : 1 509 kb/s
Channel(s)                               : 6 channels
Channel layout                           : C L R Ls Rs LFE
Sampling rate                            : 48.0 kHz
Frame rate                               : 93.750 FPS (512 SPF)
Bit depth                                : 16 bits
Compression mode                         : Lossy
Stream size                              : 1.06 GiB (13%)
Title                                    : English DTS 1509 kbps
Language                                 : English
Default                                  : No
Forced                                   : No

Menu
00:00:00.000                             : :
00:07:59.228                             : :
00:18:18.055                             : :
00:24:58.497                             : :
00:31:50.450                             : :
00:38:44.113                             : :
00:50:06.753                             : :
00:57:01.084                             : :
01:05:41.729                             : :
01:13:28.529                             : :
01:20:24.236                             : :
01:29:31.366                             : :



                                                                                                                                                                                                        
                                                                                                                                                                                                                                                                                                                                                                                                                                                                                                                                                                                                                                                                                                                                                                                                                                                      
e8865d118375c7025c59fd2fcd2e03e5.torrent (40.46 KB, 下载次数: 0)

回复

使用道具 举报

小黑屋|西西论坛

本网站所有资源来自网络,如无意中侵犯了您的权益,请发邮件至 [email protected],立即清除相关链接

GMT+8, 2020-2-25 02:15 , Processed in 0.065194 second(s), 23 queries .

Powered by Discuz! X3.2

© 2001-2013 Comsenz Inc.

快速回复 返回顶部 返回列表