西西论坛

 找回密码
 立即注册
搜索

变身 Metamorphosis.2019.1080p.BluRay.x264-GiMCHi 7.64GB

[复制链接]
电影首发 发表于 2020-2-1 10:02:27 | 显示全部楼层 |阅读模式
帖子完整标题:变身 Metamorphosis.2019.1080p.BluRay.x264-GiMCHi 7.64GB




◎译  名 变身 / Byeonshin / Metamorphosis / Transformation
◎片  名 ??
◎年  代 2019
◎产  地 韩国
◎类  别 恐怖
◎语  言 韩语
◎上映日期 2019-08-21(韩国)
◎片  长 113分钟
◎导  演 金泓善 Hong-sun Kim
◎主  演 裴晟祐 Sung-Woo Bae
       成东日 Dong-il Sung
       张荣男 Young-nam Jang
       金惠濬 Hye-joon Kim
       曹怡贤 Yi-hyun Joo
       金嫝勋 Kang Hoon Kim


◎标  签 恐怖 | 驱魔 | 韩国 | 惊悚 | 韩国电影 | 宗教 | 2019 | 悬疑

◎简  介  

  讲述了一个神父为了打败折磨家人的恶鬼而展开的故事。

◎获奖情况  

  第40届韩国电影青龙奖(2019)
  最佳女配角(提名) 张荣男
  技术奖(提名)
Video
ID                                       : 1
Format                                   : AVC
Format/Info                              : Advanced Video Codeces
Format settings, CABAC                   : Yes
Format settings, Reference frames        : 5 frames
Codec ID                                 : V_MPEG4/ISO/AVC
Duration                                 : 1 h 52 min
Bit rate                                 : 8 201 kb/s
Width                                    : 1 920 pixels
Height                                   : 800 pixels
Display aspect ratio                     : 2.40:1
Frame rate mode                          : Constant
Frame rate                               : 23.976 (24000/1001) FPS
Color space                              : YUV
Chroma subsampling                       : 4:2:0
Bit depth                                : 8 bits
Scan type                                : Progressive
Bits/(Pixel*Frame)                       : 0.223
Stream size                              : 6.45 GiB (84%)
Writing library                          : x264 core 159 r2991 1771b55
Encoding settings                        : cabac=1 / ref=5 / deblock=1:0:0 / analyse=0x3:0x133 / me=umh / subme=7 / psy=1 / psy_rd=1.00:0.00 / mixed_ref=1 / me_range=16 / chroma_me=1 / trellis=1 / 8x8dct=1 / cqm=0 / deadzone=21,11 / fast_pskip=0 / chroma_qp_offset=-2 / threads=12 / lookahead_threads=2 / sliced_threads=0 / nr=0 / decimate=1 / interlaced=0 / bluray_compat=0 / constrained_intra=0 / bframes=3 / b_pyramid=2 / b_adapt=2 / b_bias=0 / direct=3 / weightb=1 / open_gop=0 / weightp=2 / keyint=240 / keyint_min=23 / scenecut=40 / intra_refresh=0 / rc_lookahead=50 / rc=2pass / mbtree=1 / bitrate=8201 / ratetol=1.0 / qcomp=0.60 / qpmin=0 / qpmax=69 / qpstep=4 / cplxblur=20.0 / qblur=0.5 / ip_ratio=1.40 / aq=1:1.00
Language                                 : English
Default                                  : Yes
Forced                                   : No

Audio
ID                                       : 2
Format                                   : DTS
Format/Info                              : Digital Theater Systems
Codec ID                                 : A_DTS
Duration                                 : 1 h 52 min
Bit rate mode                            : Constant
Bit rate                                 : 1 509 kb/s
Channel(s)                               : 6 channels
Channel layout                           : C L R Ls Rs LFE
Sampling rate                            : 48.0 kHz
Frame rate                               : 93.750 FPS (512 SPF)
Bit depth                                : 24 bits
Compression mode                         : Lossy
Stream size                              : 1.19 GiB (16%)
Title                                    : Korean
Language                                 : Korean
Default                                  : Yes
Forced                                   : No

Text
ID                                       : 3
Format                                   : UTF-8
Codec ID                                 : S_TEXT/UTF8
Codec ID/Info                            : UTF-8 Plain Text
Duration                                 : 1 h 46 min
Bit rate                                 : 29 b/s
Count of elements                        : 932
Stream size                              : 23.1 KiB (0%)
Title                                    : English
Language                                 : English
Default                                  : Yes
Forced                                   : No

Menu
00:00:00.000                             : en:Chapter 01
00:06:37.147                             : en:Chapter 02
00:15:22.171                             : en:Chapter 03
00:23:44.089                             : en:Chapter 04
00:31:40.941                             : en:Chapter 05
00:40:20.335                             : en:Chapter 06
00:51:24.123                             : en:Chapter 07
01:04:58.186                             : en:Chapter 08
01:18:59.068                             : en:Chapter 09
01:27:26.158                             : en:Chapter 10
01:37:52.408                             : en:Chapter 11
01:47:17.765                             : en:Chapter 12



                                                                                                                                                                                                        
                                                                                                                                                                                                                                                                                                                                                                                                                                                                                                                                                                                                                                                                                                                                                                                                                                                      
5c5dd9d242442a60678be9d660f90031.torrent (38.82 KB, 下载次数: 0)

回复

使用道具 举报

小黑屋|西西论坛

本网站所有资源来自网络,如无意中侵犯了您的权益,请发邮件至 [email protected],立即清除相关链接

GMT+8, 2020-2-25 02:34 , Processed in 0.058627 second(s), 23 queries .

Powered by Discuz! X3.2

© 2001-2013 Comsenz Inc.

快速回复 返回顶部 返回列表