西西论坛

 找回密码
 立即注册
搜索

蓝鸟咖啡馆 Bluebird.2019.720p.BluRay.x264-CADAVER 3.28GB

[复制链接]
电影首发 发表于 2020-2-1 09:52:06 | 显示全部楼层 |阅读模式
子完整标题:蓝鸟咖啡馆 Bluebird.2019.720p.BluRay.x264-CADAVER 3.28GB




◎译  名 蓝鸟咖啡馆
◎片  名 Bluebird
◎年  代 2019
◎产  地 美国
◎类  别 纪录片 / 音乐
◎语  言 英语
◎上映日期 2019(美国)
◎IMDb评分  8.7/10 from 35 users
◎片  长 83分钟
◎导  演 Brian A. Loschiavo
◎主  演 康妮·布里登 Connie Britton
       盖斯·布洛克斯 Garth Brooks
       Steve Earle
       查尔斯·伊斯滕 Charles Esten
       Vince Gill
       菲丝·希尔 Faith Hill
       Jason Isbell
       Maren Morris
       Kacey Musgraves
       泰勒·斯威夫特 Taylor Swift
       Pam Tillis
       Trisha Yearwood


◎标  签 纪录片 | 音乐 | 2019 | 美国电影 | 美国 | 传记

◎简  介  

  坐落在乡村音乐之都纳什维尔一个不起眼的购物中心里的蓝鸟咖啡馆,是孕育了多位格莱美获奖者的摇篮。当年年仅十四岁的泰勒·斯威夫特正是因为在这里演唱,才有缘被唱片公司老板发掘。时隔多年,泰勒·斯威夫特重回蓝鸟,在这个当初让她的梦想落地发芽的咖啡馆里,演唱了一整首歌,热忱的唱腔里充满了感概和记忆,也成了蓝鸟咖啡馆最独特的背景音乐。纪录片除了讲述了在蓝鸟咖啡馆里,一位位音乐创作人被星探发掘,一举成名的故事,同时也记载了这家咖啡馆在这十几年内的所有变迁。这是一封送给所有乡村音乐爱好者的情书。
Video
ID                                       : 1
Format                                   : AVC
Format/Info                              : Advanced Video Codec
Format settings                          : CABAC / 12 Ref Frames
Format settings, CABAC                   : Yes
Format settings, Reference frames        : 12 frames
Codec ID                                 : V_MPEG4/ISO/AVC
Duration                                 : 1 h 22 min
Bit rate                                 : 5 346 kb/s
Width                                    : 1 280 pixels
Height                                   : 536 pixels
Display aspect ratio                     : 2.40:1
Frame rate mode                          : Constant
Frame rate                               : 23.976 (24000/1001) FPS
Color space                              : YUV
Chroma subsampling                       : 4:2:0
Bit depth                                : 8 bits
Scan type                                : Progressive
Bits/(Pixel*Frame)                       : 0.325
Stream size                              : 3.09 GiB (94%)
Writing library                          : x264 core 159 r2991 1771b55
Encoding settings                        : cabac=1 / ref=12 / deblock=1:-3:-3 / analyse=0x3:0x133 / me=umh / subme=9 / psy=1 / psy_rd=1.00:0.00 / mixed_ref=1 / me_range=24 / chroma_me=1 / trellis=1 / 8x8dct=1 / cqm=0 / deadzone=21,11 / fast_pskip=0 / chroma_qp_offset=-2 / threads=6 / lookahead_threads=1 / sliced_threads=0 / nr=0 / decimate=1 / interlaced=0 / bluray_compat=0 / constrained_intra=0 / bframes=8 / b_pyramid=2 / b_adapt=2 / b_bias=0 / direct=3 / weightb=1 / open_gop=0 / weightp=2 / keyint=250 / keyint_min=23 / scenecut=40 / intra_refresh=0 / rc_lookahead=60 / rc=2pass / mbtree=1 / bitrate=5346 / ratetol=1.0 / qcomp=0.60 / qpmin=0 / qpmax=69 / qpstep=4 / cplxblur=20.0 / qblur=0.5 / vbv_maxrate=62500 / vbv_bufsize=78125 / nal_hrd=none / filler=0 / ip_ratio=1.40 / aq=1:1.00
Default                                  : Yes
Forced                                   : No

Audio
ID                                       : 2
Format                                   : AC-3
Format/Info                              : Audio Coding 3
Commercial name                          : Dolby Digital
Codec ID                                 : A_AC3
Duration                                 : 1 h 22 min
Bit rate mode                            : Constant
Bit rate                                 : 320 kb/s
Channel(s)                               : 6 channels
Channel layout                           : L R C LFE Ls Rs
Sampling rate                            : 48.0 kHz
Frame rate                               : 31.250 FPS (1536 SPF)
Bit depth                                : 16 bits
Compression mode                         : Lossy
Stream size                              : 189 MiB (6%)
Language                                 : English
Service kind                             : Complete Main
Default                                  : Yes
Forced                                   : No

Menu
00:00:00.000                             : en:Chapter 01
00:05:22.823                             : en:Chapter 02
00:11:09.669                             : en:Chapter 03
00:16:12.972                             : en:Chapter 04
00:22:18.838                             : en:Chapter 05
00:28:09.688                             : en:Chapter 06
00:32:21.940                             : en:Chapter 07
00:36:29.688                             : en:Chapter 08
00:42:15.032                             : en:Chapter 09
00:49:42.480                             : en:Chapter 10
00:56:26.884                             : en:Chapter 11
01:03:41.818                             : en:Chapter 12
01:10:26.222                             : en:Chapter 13
01:14:53.990                             : en:Chapter 14
01:18:39.215                             : en:Chapter 15



                                                                                                                                                                                                        
                                                                                                                                                                                                                                                                                                                                                                                                                                                                                                                                                                                                                                                                                                                                                                                                                                                      
944ebc9348bc8fd96c2d3e2cadf9dd83.torrent (33.45 KB, 下载次数: 0)

回复

使用道具 举报

小黑屋|西西论坛

本网站所有资源来自网络,如无意中侵犯了您的权益,请发邮件至 [email protected],立即清除相关链接

GMT+8, 2020-2-29 00:24 , Processed in 0.060889 second(s), 23 queries .

Powered by Discuz! X3.2

© 2001-2013 Comsenz Inc.

快速回复 返回顶部 返回列表