西西论坛

 找回密码
 立即注册
搜索

比佛利山超级警探3/妙探出差3 Beverly.Hills.Cop.III.1994.REMASTERED...

[复制链接]
电影首发 发表于 2020-1-31 15:48:23 | 显示全部楼层 |阅读模式
帖子完整标题:比佛利山超级警探3/妙探出差3 Beverly.Hills.Cop.III.1994.REMASTERED.720p.BluRay.X264-AMIABLE 6.61GB




◎译  名 比佛利山超级警探3 / 妙探出差3 / 妙探出差第三集 / 妙探出更第三集 / 比佛利山警探3 / 霹雳炮3
◎片  名 Beverly Hills Cop III
◎年  代 1994
◎产  地 美国
◎类  别 喜剧 / 动作 / 惊悚 / 犯罪
◎语  言 英语
◎上映日期 1994-05-25
◎片  长 104 分钟
◎导  演 John Landis
◎编  剧 Steven E. de Souza / Danilo Bach / Daniel Petrie Jr.
◎主  演 Eddie Murphy
       Jon Tenney
       Joey Travolta
       Eugene Collier


◎标  签 喜剧 | 美国 | 动作 | 美国电影 | 1994 | 警匪 | EddieMurphy | 搞笑

◎简  介  

  我们的反常规干探艾索(艾迪?墨菲 Eddie Murphy 饰)又回来了!艾索身为底特律的刑警,却三番四次跑到了洛山矶去破案,这次也不例外。艾索被派遣调查一宗谋杀案,他发现了案中的一连串线索,顺藤摸瓜之下最终追踪到了洛山矶比佛利山上一个大型游乐场的主人。
  回到久违的洛山矶,艾索当然要找到前两集的最佳拍档――洛山矶刑警比利(祖德?莱茵霍尔德 Judge Reinhold 饰)。于是比利和艾索两人深入虎穴,直接来到了游乐场调查。没想到的是,游乐场主人在这里设置了重重障碍,面对他们的将是连场恶斗!
Video
ID                                       : 1
Format                                   : AVC
Format/Info                              : Advanced Video Codec
Format settings                          : CABAC / 9 Ref Frames
Format settings, CABAC                   : Yes
Format settings, Reference frames        : 9 frames
Codec ID                                 : V_MPEG4/ISO/AVC
Duration                                 : 1 h 44 min
Bit rate                                 : 7 499 kb/s
Width                                    : 1 280 pixels
Height                                   : 720 pixels
Display aspect ratio                     : 16:9
Frame rate mode                          : Constant
Frame rate                               : 23.976 (24000/1001) FPS
Color space                              : YUV
Chroma subsampling                       : 4:2:0
Bit depth                                : 8 bits
Scan type                                : Progressive
Bits/(Pixel*Frame)                       : 0.339
Stream size                              : 5.33 GiB (81%)
Writing library                          : x264 core 159 r2991 1771b55
Encoding settings                        : cabac=1 / ref=9 / deblock=1:-3:-3 / analyse=0x3:0x133 / me=umh / subme=10 / psy=1 / psy_rd=1.00:0.00 / mixed_ref=1 / me_range=24 / chroma_me=1 / trellis=2 / 8x8dct=1 / cqm=0 / deadzone=21,11 / fast_pskip=0 / chroma_qp_offset=-2 / threads=22 / lookahead_threads=5 / sliced_threads=0 / nr=0 / decimate=0 / interlaced=0 / bluray_compat=0 / constrained_intra=0 / bframes=10 / b_pyramid=2 / b_adapt=2 / b_bias=0 / direct=3 / weightb=1 / open_gop=0 / weightp=2 / keyint=240 / keyint_min=24 / scenecut=40 / intra_refresh=0 / rc_lookahead=60 / rc=2pass / mbtree=1 / bitrate=7499 / ratetol=1.0 / qcomp=0.60 / qpmin=0 / qpmax=69 / qpstep=4 / cplxblur=20.0 / qblur=0.5 / ip_ratio=1.30 / aq=3:0.70
Default                                  : Yes
Forced                                   : No
Statistics Tags Issue                    : no_variable_data 1970-01-01 00:00:00 / no_variable_data 2010-02-22 21:41:29
FromStats_BitRate                        : 7494246
FromStats_Duration                       : 01:44:12.914000000
FromStats_FrameCount                     : 149920
FromStats_StreamSize                     : 5857609968

Audio
ID                                       : 2
Format                                   : DTS
Format/Info                              : Digital Theater Systems
Codec ID                                 : A_DTS
Duration                                 : 1 h 44 min
Bit rate mode                            : Constant
Bit rate                                 : 1 509 kb/s
Channel(s)                               : 6 channels
Channel layout                           : C L R Ls Rs LFE
Sampling rate                            : 48.0 kHz
Frame rate                               : 93.750 FPS (512 SPF)
Bit depth                                : 24 bits
Compression mode                         : Lossy
Stream size                              : 1.10 GiB (17%)
Language                                 : English
Default                                  : Yes
Forced                                   : No
Statistics Tags Issue                    : no_variable_data 1970-01-01 00:00:00 / no_variable_data 2010-02-22 21:41:29
FromStats_BitRate                        : 1508999
FromStats_Duration                       : 01:44:12.918000000
FromStats_FrameCount                     : 586211
FromStats_StreamSize                     : 1179456532

Text #1
ID                                       : 3
Format                                   : UTF-8
Codec ID                                 : S_TEXT/UTF8
Codec ID/Info                            : UTF-8 Plain Text
Language                                 : English
Default                                  : No
Forced                                   : No
Statistics Tags Issue                    : no_variable_data 1970-01-01 00:00:00 / no_variable_data 2010-02-22 21:41:29
FromStats_BitRate                        : 56
FromStats_Duration                       : 01:36:36.124000000
FromStats_FrameCount                     : 1014
FromStats_StreamSize                     : 41251

Text #2
ID                                       : 4
Format                                   : UTF-8
Codec ID                                 : S_TEXT/UTF8
Codec ID/Info                            : UTF-8 Plain Text
Title                                    : SDH
Language                                 : English
Default                                  : No
Forced                                   : No
Statistics Tags Issue                    : no_variable_data 1970-01-01 00:00:00 / no_variable_data 2010-02-22 21:41:29
FromStats_BitRate                        : 56
FromStats_Duration                       : 01:44:07.074000000
FromStats_FrameCount                     : 1123
FromStats_StreamSize                     : 44008

Menu
00:00:00.000                             : en:Chapter 01
00:09:34.783                             : en:Chapter 02
00:15:58.624                             : en:Chapter 03
00:20:57.965                             : en:Chapter 04
00:26:57.366                             : en:Chapter 05
00:37:37.755                             : en:Chapter 06
00:40:06.154                             : en:Chapter 07
00:46:26.742                             : en:Chapter 08
00:53:20.155                             : en:Chapter 09
00:56:22.170                             : en:Chapter 10
01:03:24.009                             : en:Chapter 11
01:10:29.892                             : en:Chapter 12
01:19:19.421                             : en:Chapter 13
01:37:21.836                             : en:Chapter 14



                                                                                                                                                                                                        
                                                                                                                                                                                                                                                                                                                                                                                                                                                                                                                                                                                                                                                                                                                                                                                                                                                      
b25e0985e6227471d042ae4d699f2918.torrent (33.93 KB, 下载次数: 0)

回复

使用道具 举报

小黑屋|西西论坛

本网站所有资源来自网络,如无意中侵犯了您的权益,请发邮件至 [email protected],立即清除相关链接

GMT+8, 2020-2-29 00:27 , Processed in 0.074620 second(s), 23 queries .

Powered by Discuz! X3.2

© 2001-2013 Comsenz Inc.

快速回复 返回顶部 返回列表