西西论坛

 找回密码
 立即注册
搜索

比佛利山超级警探2/妙探出差2 Beverly.Hills.Cop.II.1987.REMASTERED....

[复制链接]
电影首发 发表于 2020-1-31 15:48:23 | 显示全部楼层 |阅读模式
帖子完整标题:比佛利山超级警探2/妙探出差2 Beverly.Hills.Cop.II.1987.REMASTERED.720p.BluRay.X264-AMIABLE 6.63GB




◎译  名 比佛利山超级警探2 / 妙探出差2 / 妙探出差续集 / 妙探出更续集 / 比佛利山警探2 / 轰天雷2 / 霹雳炮2
◎片  名 Beverly Hills Cop II
◎年  代 1987
◎产  地 美国
◎类  别 喜剧 / 动作 / 惊悚 / 犯罪
◎语  言 英语
◎上映日期 1987-05-20
◎IMDb评分  6.5/10 from 101566 users
◎片  长 100 分钟
◎导  演 Tony Scott
◎编  剧 Larry Ferguson / Warren Skaaren / Danilo Bach / Daniel Petrie Jr. / Eddie Murphy / Robert D. Wachs
◎主  演 艾迪·墨菲 Eddie Murphy
       祖德·莱茵霍尔德 Judge Reinhold
       尤尔根·普洛斯诺 Jürgen Prochnow
       罗尼·考克斯 Ronny Cox
       John Ashton
       布里吉特·尼尔森 Brigitte Nielsen
       艾伦·加菲尔德 Allen Garfield
       迪恩·斯托克维尔 Dean Stockwell
       保罗·雷瑟 Paul Reiser
       Gilbert R. Hill
       保罗·盖尔福勒 Paul Guilfoyle
       Robert Ridgely
       Brian O'Connor
       Alice Adair
       Eugene Butler


◎标  签 喜剧 | 美国 | 动作 | 美国电影 | 犯罪 | 1987 | 警匪 | 搞笑

◎简  介  

  这是比佛利山超级警探的第二集。艾索(艾迪?墨菲 Eddie Murphy 饰)在上一集破案后老老实实地回到了底特律当他的刑警,回到底特律的他顿时感到百无聊赖。于是,艾索每周都会找他在洛山矶办案时结识的好朋友兼好搭档洛山矶警局的局长博格密尔(罗尼?考克斯 Ronny Cox 饰)出海钓鱼。
  可是这周博格密尔临时取消了和艾索的钓鱼活动,事后艾索才得知原来博格密尔卷入了一单复杂危险的案件侦察中。博格密尔不幸在调查中被犯罪枪击受伤,现在正住在医院里。向来讲义气、嫉恶如仇的艾索又怎能按耐得住,于是他马上来到了洛山矶约上最佳搭档比利(祖德?莱茵霍尔德 Judge Reinhold 饰),要一展身手为好友报仇。

◎获奖情况  

  第60届奥斯卡金像奖(1988)
  最佳原创歌曲(提名) 基思·福西 / 哈罗德·方特梅耶 / Bob Seger
Video
ID                                       : 1
Format                                   : AVC
Format/Info                              : Advanced Video Codec
Format settings                          : CABAC / 12 Ref Frames
Format settings, CABAC                   : Yes
Format settings, Reference frames        : 12 frames
Codec ID                                 : V_MPEG4/ISO/AVC
Duration                                 : 1 h 42 min
Bit rate                                 : 7 607 kb/s
Width                                    : 1 280 pixels
Height                                   : 544 pixels
Display aspect ratio                     : 2.35:1
Frame rate mode                          : Constant
Frame rate                               : 23.976 (24000/1001) FPS
Color space                              : YUV
Chroma subsampling                       : 4:2:0
Bit depth                                : 8 bits
Scan type                                : Progressive
Bits/(Pixel*Frame)                       : 0.456
Stream size                              : 5.34 GiB (81%)
Writing library                          : x264 core 159 r2991 1771b55
Encoding settings                        : cabac=1 / ref=12 / deblock=1:-3:-3 / analyse=0x3:0x133 / me=umh / subme=10 / psy=1 / psy_rd=1.10:0.00 / mixed_ref=1 / me_range=24 / chroma_me=1 / trellis=2 / 8x8dct=1 / cqm=0 / deadzone=21,11 / fast_pskip=0 / chroma_qp_offset=-2 / threads=17 / lookahead_threads=4 / sliced_threads=0 / nr=0 / decimate=0 / interlaced=0 / bluray_compat=0 / constrained_intra=0 / bframes=10 / b_pyramid=2 / b_adapt=2 / b_bias=0 / direct=3 / weightb=1 / open_gop=0 / weightp=2 / keyint=240 / keyint_min=24 / scenecut=40 / intra_refresh=0 / rc_lookahead=60 / rc=2pass / mbtree=1 / bitrate=7607 / ratetol=1.0 / qcomp=0.60 / qpmin=0 / qpmax=69 / qpstep=4 / cplxblur=20.0 / qblur=0.5 / ip_ratio=1.30 / aq=3:0.70
Default                                  : Yes
Forced                                   : No
Statistics Tags Issue                    : no_variable_data 1970-01-01 00:00:00 / no_variable_data 2010-02-22 21:41:29
FromStats_BitRate                        : 7603224
FromStats_Duration                       : 01:42:59.298000000
FromStats_FrameCount                     : 148155
FromStats_StreamSize                     : 5872824031

Audio
ID                                       : 2
Format                                   : DTS
Format/Info                              : Digital Theater Systems
Codec ID                                 : A_DTS
Duration                                 : 1 h 42 min
Bit rate mode                            : Constant
Bit rate                                 : 1 509 kb/s
Channel(s)                               : 6 channels
Channel layout                           : C L R Ls Rs LFE
Sampling rate                            : 48.0 kHz
Frame rate                               : 93.750 FPS (512 SPF)
Bit depth                                : 24 bits
Compression mode                         : Lossy
Stream size                              : 1.09 GiB (17%)
Language                                 : English
Default                                  : Yes
Forced                                   : No
Statistics Tags Issue                    : no_variable_data 1970-01-01 00:00:00 / no_variable_data 2010-02-22 21:41:29
FromStats_BitRate                        : 1508999
FromStats_Duration                       : 01:42:59.307000000
FromStats_FrameCount                     : 579310
FromStats_StreamSize                     : 1165571720

Text #1
ID                                       : 3
Format                                   : UTF-8
Codec ID                                 : S_TEXT/UTF8
Codec ID/Info                            : UTF-8 Plain Text
Language                                 : English
Default                                  : No
Forced                                   : No
Statistics Tags Issue                    : no_variable_data 1970-01-01 00:00:00 / no_variable_data 2010-02-22 21:41:29
FromStats_BitRate                        : 79
FromStats_Duration                       : 01:37:50.406000000
FromStats_FrameCount                     : 1295
FromStats_StreamSize                     : 58671

Text #2
ID                                       : 4
Format                                   : UTF-8
Codec ID                                 : S_TEXT/UTF8
Codec ID/Info                            : UTF-8 Plain Text
Title                                    : SDH
Language                                 : English
Default                                  : No
Forced                                   : No
Statistics Tags Issue                    : no_variable_data 1970-01-01 00:00:00 / no_variable_data 2010-02-22 21:41:29
FromStats_BitRate                        : 80
FromStats_Duration                       : 01:42:02.950000000
FromStats_FrameCount                     : 1408
FromStats_StreamSize                     : 61715

Menu
00:00:00.000                             : en:Chapter 01
00:02:51.838                             : en:Chapter 02
00:09:17.056                             : en:Chapter 03
00:14:30.286                             : en:Chapter 04
00:22:11.622                             : en:Chapter 05
00:29:30.102                             : en:Chapter 06
00:46:25.741                             : en:Chapter 07
00:52:24.933                             : en:Chapter 08
01:02:05.722                             : en:Chapter 09
01:15:37.366                             : en:Chapter 10
01:23:45.520                             : en:Chapter 11
01:36:35.790                             : en:Chapter 12
01:38:53.344                             : en:Chapter 13



                                                                                                                                                                                                        
                                                                                                                                                                                                                                                                                                                                                                                                                                                                                                                                                                                                                                                                                                                                                                                                                                                       、、 54c6320883542752486a93b4ce8d01a5.torrent (34.02 KB, 下载次数: 0)

回复

使用道具 举报

小黑屋|西西论坛

本网站所有资源来自网络,如无意中侵犯了您的权益,请发邮件至 [email protected],立即清除相关链接

GMT+8, 2020-2-26 02:46 , Processed in 0.067034 second(s), 23 queries .

Powered by Discuz! X3.2

© 2001-2013 Comsenz Inc.

快速回复 返回顶部 返回列表