西西论坛

 找回密码
 立即注册
搜索

比佛利山超级警探/妙探出差 Beverly.Hills.Cop.1984.REMASTERED.720p....

[复制链接]
电影首发 发表于 2020-1-31 15:48:23 | 显示全部楼层 |阅读模式
帖子完整标题:比佛利山超级警探/妙探出差 Beverly.Hills.Cop.1984.REMASTERED.720p.BluRay.X264-AMIABLE 6.62GB




◎译  名 比佛利山超级警探 / 妙探出差(港) / 妙探出更 / 比佛利山警探 / 轰天雷 / 霹雳炮
◎片  名 Beverly Hills Cop
◎年  代 1984
◎产  地 美国
◎类  别 剧情 / 喜剧 / 动作 / 惊悚 / 犯罪
◎语  言 英语
◎上映日期 1984-12-05
◎IMDb评分  7.3/10 from 153547 users
◎片  长 105 分钟
◎导  演 Martin Brest
◎编  剧 Daniel Petrie Jr. / Danilo Bach
◎主  演 Eddie Murphy
       Judge Reinhold
       John Ashton
       Lisa Eilbacher
       Ronny Cox


◎标  签 喜剧 | 美国 | 动作 | 1984 | 美国电影 | 犯罪 | 警匪 | EddieMurphy

◎简  介  

  艾索(艾迪?墨菲 Eddie Murphy 饰)是底特律黑白两道的大名人,身为警探,却也不时干些偷鸡摸狗的勾当,而且他侦办案件时经常不按程序办事,上司对他十分头痛。这天,艾索因为敲诈烟贩而差点被开除出去,幸亏好运气才免遭于难。
  艾索偶遇了一位刚出狱的好友,这人带着巨额的德国债券来到了底特律。两人重逢后不久,艾索的这位朋友就被谋杀了。深谙此事不简单,艾索开始了调查。他独自一人追踪嫌疑人维克多来到了好莱坞的比佛利山,正当他准备上前盘问时,却被当地警察带回了警局。当艾索调查得悉维多克的确在贩毒时,当地的警长同意介入调查,却将艾索打发回老家。艾索只好劝说当地的一名警员比利(祖德?莱茵霍尔德 Judge Reinhold 饰)和他合作,两人开始了私自调查。

◎获奖情况  

  第57届奥斯卡金像奖(1985)
  最佳原创剧本(提名) 小丹尼尔·皮特里 / 达尼洛·巴赫
Video
ID                                       : 1
Format                                   : AVC
Format/Info                              : Advanced Video Codec
Format settings                          : CABAC / 9 Ref Frames
Format settings, CABAC                   : Yes
Format settings, Reference frames        : 9 frames
Codec ID                                 : V_MPEG4/ISO/AVC
Duration                                 : 1 h 45 min
Bit rate                                 : 7 424 kb/s
Width                                    : 1 280 pixels
Height                                   : 720 pixels
Display aspect ratio                     : 16:9
Frame rate mode                          : Constant
Frame rate                               : 23.976 (24000/1001) FPS
Color space                              : YUV
Chroma subsampling                       : 4:2:0
Bit depth                                : 8 bits
Scan type                                : Progressive
Bits/(Pixel*Frame)                       : 0.336
Stream size                              : 5.45 GiB (83%)
Writing library                          : x264 core 159 r2991 1771b55
Encoding settings                        : cabac=1 / ref=9 / deblock=1:-3:-3 / analyse=0x3:0x133 / me=umh / subme=10 / psy=1 / psy_rd=1.12:0.00 / mixed_ref=1 / me_range=24 / chroma_me=1 / trellis=2 / 8x8dct=1 / cqm=0 / deadzone=21,11 / fast_pskip=0 / chroma_qp_offset=-2 / threads=22 / lookahead_threads=5 / sliced_threads=0 / nr=0 / decimate=0 / interlaced=0 / bluray_compat=0 / constrained_intra=0 / bframes=10 / b_pyramid=2 / b_adapt=2 / b_bias=0 / direct=3 / weightb=1 / open_gop=0 / weightp=2 / keyint=240 / keyint_min=24 / scenecut=40 / intra_refresh=0 / rc_lookahead=60 / rc=2pass / mbtree=1 / bitrate=7424 / ratetol=1.0 / qcomp=0.60 / qpmin=0 / qpmax=69 / qpstep=4 / cplxblur=20.0 / qblur=0.5 / ip_ratio=1.30 / aq=3:0.70
Default                                  : Yes
Forced                                   : No

Audio
ID                                       : 2
Format                                   : DTS
Format/Info                              : Digital Theater Systems
Codec ID                                 : A_DTS
Duration                                 : 1 h 45 min
Bit rate mode                            : Constant
Bit rate                                 : 1 509 kb/s
Channel(s)                               : 6 channels
Channel layout                           : C L R Ls Rs LFE
Sampling rate                            : 48.0 kHz
Frame rate                               : 93.750 FPS (512 SPF)
Bit depth                                : 24 bits
Compression mode                         : Lossy
Stream size                              : 1.11 GiB (17%)
Language                                 : English
Default                                  : Yes
Forced                                   : No

Text #1
ID                                       : 3
Format                                   : UTF-8
Codec ID                                 : S_TEXT/UTF8
Codec ID/Info                            : UTF-8 Plain Text
Duration                                 : 1 h 38 min
Bit rate                                 : 73 b/s
Count of elements                        : 1328
Stream size                              : 53.2 KiB (0%)
Language                                 : English
Default                                  : No
Forced                                   : No

Text #2
ID                                       : 4
Format                                   : UTF-8
Codec ID                                 : S_TEXT/UTF8
Codec ID/Info                            : UTF-8 Plain Text
Duration                                 : 1 h 40 min
Bit rate                                 : 75 b/s
Count of elements                        : 1408
Stream size                              : 55.3 KiB (0%)
Title                                    : SDH
Language                                 : English
Default                                  : No
Forced                                   : No

Menu
00:00:00.000                             : :Chapter 01
00:10:58.491                             : :Chapter 02
00:19:31.670                             : :Chapter 03
00:36:03.578                             : :Chapter 04
00:45:07.163                             : :Chapter 05
00:49:28.841                             : :Chapter 06
00:58:39.599                             : :Chapter 07
01:13:16.100                             : :Chapter 08
01:23:22.664                             : :Chapter 09
01:38:28.194                             : :Chapter 10
01:41:04.433                             : :Chapter 11



                                                                                                                                                                                                        
                                                                                                                                                                                                                                                                                                                                                                                                                                                                                                                                                                                                                                                                                                                                                                                                                                                      
cf021e5fe2665172a8da12e02d58f663.torrent (33.98 KB, 下载次数: 0)

回复

使用道具 举报

小黑屋|西西论坛

本网站所有资源来自网络,如无意中侵犯了您的权益,请发邮件至 [email protected],立即清除相关链接

GMT+8, 2020-2-26 04:36 , Processed in 0.073734 second(s), 23 queries .

Powered by Discuz! X3.2

© 2001-2013 Comsenz Inc.

快速回复 返回顶部 返回列表