西西论坛

 找回密码
 立即注册
搜索

军团 The.Legions.2019.720p.BluRay.x264-SPRiNTER 6.56GB

[复制链接]
电影首发 发表于 2020-1-29 09:33:06 | 显示全部楼层 |阅读模式
子完整标题:军团 The.Legions.2019.720p.BluRay.x264-SPRiNTER 6.56GB




◎译  名 军团
◎片  名 Legiony
◎年  代 2019
◎产  地 波兰
◎类  别 历史 / 战争
◎语  言 波兰语
◎上映日期 2019-09-20(波兰)
◎IMDb评分  5.1/10 from 126 users
◎片  长 120分钟
◎导  演 达留什·加耶夫斯基 Dariusz Gajewski
◎编  剧 达留什·加耶夫斯基 Dariusz Gajewski / Michal Godzic
◎主  演 维克托利亚·沃兰斯卡 Wiktoria Wolanska
       赛巴斯汀·法比杰斯基 Sebastian Fabijanski
       巴托茨·戈尔纳 Bartosz Gelner
       安东尼·帕利基 Antoni Pawlicki
       马切伊·马杰斯基 Maciej Marczewski
       让·弗里兹 Jan Frycz
       波利斯·席克 Borys Szyc
       莫迪斯特·鲁辛斯基 Modest Rucinski
       米罗斯洛·巴卡 Miroslaw Baka


◎标  签 波兰 | 达留什·加耶夫斯基 | 波兰电影 | 一战 | 2019

◎简  介  

  讲述一战期间,沙俄军队的逃兵克泽加了同盟国的波兰军团,并认识了在女子情报队服役的妻子。影片描述了1914-1916年间波兰军团经历的重大历史事件,除了男女主角是虚构人物外,片中其他配角如波兰国王、毕苏斯基准将等的活动都取自历史真实经历。
Video
ID                                       : 1
Format                                   : AVC
Format/Info                              : Advanced Video Codec
Format settings                          : CABAC / 8 Ref Frames
Format settings, CABAC                   : Yes
Format settings, Reference frames        : 8 frames
Codec ID                                 : V_MPEG4/ISO/AVC
Duration                                 : 2 h 19 min
Bit rate                                 : 5 218 kb/s
Width                                    : 1 280 pixels
Height                                   : 536 pixels
Display aspect ratio                     : 2.40:1
Frame rate mode                          : Constant
Frame rate                               : 24.000 FPS
Color space                              : YUV
Chroma subsampling                       : 4:2:0
Bit depth                                : 8 bits
Scan type                                : Progressive
Bits/(Pixel*Frame)                       : 0.317
Stream size                              : 5.08 GiB (78%)
Writing library                          : x264 core 159 r2991 1771b55
Encoding settings                        : cabac=1 / ref=8 / deblock=1:-3:-3 / analyse=0x3:0x133 / me=umh / subme=9 / psy=1 / psy_rd=1.00:0.00 / mixed_ref=1 / me_range=16 / chroma_me=1 / trellis=2 / 8x8dct=1 / cqm=0 / deadzone=21,11 / fast_pskip=0 / chroma_qp_offset=-2 / threads=17 / lookahead_threads=1 / sliced_threads=0 / nr=0 / decimate=1 / interlaced=0 / bluray_compat=0 / constrained_intra=0 / bframes=3 / b_pyramid=2 / b_adapt=2 / b_bias=0 / direct=3 / weightb=1 / open_gop=0 / weightp=2 / keyint=250 / keyint_min=24 / scenecut=40 / intra_refresh=0 / rc_lookahead=60 / rc=2pass / mbtree=1 / bitrate=5218 / ratetol=1.0 / qcomp=0.60 / qpmin=10 / qpmax=69 / qpstep=4 / cplxblur=20.0 / qblur=0.5 / ip_ratio=1.40 / aq=1:0.70
Default                                  : Yes
Forced                                   : No

Audio
ID                                       : 2
Format                                   : DTS
Format/Info                              : Digital Theater Systems
Codec ID                                 : A_DTS
Duration                                 : 2 h 19 min
Bit rate mode                            : Constant
Bit rate                                 : 1 509 kb/s
Channel(s)                               : 6 channels
Channel layout                           : C L R Ls Rs LFE
Sampling rate                            : 48.0 kHz
Frame rate                               : 93.750 FPS (512 SPF)
Bit depth                                : 24 bits
Compression mode                         : Lossy
Stream size                              : 1.47 GiB (22%)
Title                                    : Polish DTS 1509 kbps
Language                                 : Polish
Default                                  : Yes
Forced                                   : No

Text
ID                                       : 3
Format                                   : UTF-8
Codec ID                                 : S_TEXT/UTF8
Codec ID/Info                            : UTF-8 Plain Text
Duration                                 : 2 h 16 min
Bit rate                                 : 15 b/s
Count of elements                        : 677
Stream size                              : 15.7 KiB (0%)
Title                                    : English
Language                                 : English
Default                                  : Yes
Forced                                   : No

Menu
00:00:00.000                             : :
00:11:02.541                             : :
00:22:07.500                             : :
00:30:26.083                             : :
00:42:11.291                             : :
00:50:52.458                             : :
01:02:18.416                             : :
01:13:01.791                             : :
01:26:22.291                             : :
01:36:33.375                             : :
01:48:18.166                             : :
02:07:46.458                             : :



                                                                                                                                                                                                        
                                                                                                                                                                                                                                                                                                                                                                                                                                                                                                                                                                                                                                                                                                                                                                                                                                                      
48a46bacc684e834fc658c8352c20f4b.torrent (33.49 KB, 下载次数: 0)

回复

使用道具 举报

小黑屋|西西论坛

本网站所有资源来自网络,如无意中侵犯了您的权益,请发邮件至 [email protected],立即清除相关链接

GMT+8, 2020-2-26 03:34 , Processed in 0.056397 second(s), 23 queries .

Powered by Discuz! X3.2

© 2001-2013 Comsenz Inc.

快速回复 返回顶部 返回列表