西西论坛

 找回密码
 立即注册
搜索

不能犯 Impossibility.Defense.2017.JAPANESE.1080p.BluRay.x264.DTS-iKiW 9.00GB

[复制链接]
电影首发 发表于 2020-1-28 12:37:35 | 显示全部楼层 |阅读模式
子完整标题:不能犯 Impossibility.Defense.2017.JAPANESE.1080p.BluRay.x264.DTS-iKiW 9.00GB




◎译  名 Fun?han
◎片  名 不能犯
◎年  代 2017
◎产  地 日本
◎类  别 剧情 / 悬疑 / 犯罪
◎语  言 日语
◎上映日期 2017-12-01(上海首映) / 2018-02-01(日本)
◎bt电影天堂 www.btddy.com
◎片  长 106分钟
◎导  演 白石晃士 K?ji Shiraishi
◎编  剧 白石晃士 K?ji Shiraishi / 山冈润平 Junpei Yamaoka / 神崎裕也
◎主  演 松坂桃李 T?ri Matsuzaka
       泽尻英龙华 Erika Sawajiri
       真剑佑 Mackenyu
       安田显 Ken Yasuda
       间宫祥太朗 Shotaro Mamiya
       真野惠里菜 Erina Mano
       芦名星 Sei Ashina
       矢田亚希子 Akiko Yada
       菅谷哲也
       冈崎纱绘 Sae Okazaki
       忍成修吾 Sh?go Oshinari
       水上剑星 Kensei Mikami
       水上京香 Ky?ka Minakami
       今野浩喜 Hiroki konno
       堀田茜 Akane Hotta
       小林稔侍 Nenji Kobayashi


◎标  签 日本 | 犯罪 | 松坂桃李 | 日本电影 | 悬疑 | 漫画改编 | 日影 | 2018

◎简  介  

  《不能犯》改编自宫月新原著、神崎裕也作画的同名漫画,里面的主人公“电话亭之男”(松坂桃李)是一名类似于《死亡笔记》中夜神月的暗黑英雄,专杀那些本身有罪但没有受到法律惩戒的人。
Video
ID                                       : 1
Format                                   : AVC
Format/Info                              : Advanced Video Codec
Format settings                          : CABAC / 4 Ref Frames
Format settings, CABAC                   : Yes
Format settings, Reference frames        : 4 frames
Codec ID                                 : V_MPEG4/ISO/AVC
Duration                                 : 1 h 46 min
Bit rate                                 : 10.6 Mb/s
Width                                    : 1 920 pixels
Height                                   : 1 036 pixels
Display aspect ratio                     : 1.85:1
Frame rate mode                          : Constant
Frame rate                               : 23.976 (24000/1001) FPS
Color space                              : YUV
Chroma subsampling                       : 4:2:0
Bit depth                                : 8 bits
Scan type                                : Progressive
Bits/(Pixel*Frame)                       : 0.222
Stream size                              : 7.87 GiB (87%)
Writing library                          : x264 core 129 r2245+704+36 8e61944 tMod+MixAQ [1:2:0 X86_64]
Encoding settings                        : cabac=1 / ref=4 / deblock=1:-3:-3 / analyse=0x3:0x133 / me=umh / subme=11 / psy=1 / fade_compensate=0.00 / psy_rd=1.05:0.10 / mixed_ref=1 / me_range=64 / chroma_me=1 / trellis=2 / 8x8dct=1 / cqm=0 / deadzone=21,11 / fast_pskip=0 / chroma_qp_offset=-3 / threads=18 / lookahead_threads=3 / sliced_threads=0 / nr=0 / decimate=0 / interlaced=0 / bluray_compat=0 / constrained_intra=0 / fgo=0 / bframes=10 / b_pyramid=2 / b_adapt=2 / b_bias=0 / direct=3 / weightb=1 / open_gop=0 / weightp=2 / keyint=250 / keyint_min=23 / scenecut=40 / intra_refresh=0 / rc=2pass / mbtree=0 / bitrate=10604 / ratetol=1.0 / qcomp=0.70 / qpmin=0 / qpmax=69 / qpstep=4 / cplxblur=20.0 / qblur=0.5 / ip_ratio=1.40 / pb_ratio=1.30 / aq=1 / aq-strength=0.90 / aq-sensitivity=10.00 / aq-ifactor=1.00 / aq-pfactor=1.00 / aq-bfactor=1.00 / aq2=0
Language                                 : Japanese
Default                                  : Yes
Forced                                   : No

Audio
ID                                       : 2
Format                                   : DTS
Format/Info                              : Digital Theater Systems
Codec ID                                 : A_DTS
Duration                                 : 1 h 46 min
Bit rate mode                            : Constant
Bit rate                                 : 1 509 kb/s
Channel(s)                               : 6 channels
Channel layout                           : C L R Ls Rs LFE
Sampling rate                            : 48.0 kHz
Frame rate                               : 93.750 FPS (512 SPF)
Bit depth                                : 24 bits
Compression mode                         : Lossy
Stream size                              : 1.12 GiB (12%)
Language                                 : Japanese
Default                                  : Yes
Forced                                   : No

Text #1
ID                                       : 3
Format                                   : UTF-8
Codec ID                                 : S_TEXT/UTF8
Codec ID/Info                            : UTF-8 Plain Text
Duration                                 : 1 h 45 min
Bit rate                                 : 40 b/s
Count of elements                        : 1154
Stream size                              : 31.0 KiB (0%)
Language                                 : English
Default                                  : Yes
Forced                                   : No

Text #2
ID                                       : 4
Format                                   : ASS
Codec ID                                 : S_TEXT/ASS
Codec ID/Info                            : Advanced Sub Station Alpha
Duration                                 : 1 h 46 min
Bit rate                                 : 56 b/s
Count of elements                        : 1126
Compression mode                         : Lossless
Stream size                              : 44.3 KiB (0%)
Title                                    : Simplified
Language                                 : Chinese
Default                                  : No
Forced                                   : No

Text #3
ID                                       : 5
Format                                   : ASS
Codec ID                                 : S_TEXT/ASS
Codec ID/Info                            : Advanced Sub Station Alpha
Duration                                 : 1 h 46 min
Bit rate                                 : 56 b/s
Count of elements                        : 1123
Compression mode                         : Lossless
Stream size                              : 44.2 KiB (0%)
Title                                    : Traditional
Language                                 : Chinese
Default                                  : No
Forced                                   : No

Menu
00:00:00.000                             : en:00:00:00.000
00:09:36.576                             : en:00:09:36.576
00:18:44.122                             : en:00:18:44.122
00:27:32.484                             : en:00:27:32.484
00:39:28.991                             : en:00:39:28.991
00:48:38.582                             : en:00:48:38.582
01:02:24.907                             : en:01:02:24.907
01:13:29.113                             : en:01:13:29.113
01:21:48.361                             : en:01:21:48.361
01:28:32.640                             : en:01:28:32.640
01:37:36.851                             : en:01:37:36.851
01:42:17.464                             : en:01:42:17.464
01:46:15.202                             : en:01:46:15.202



                                                                                                                                                                                                        
                                                                                                                                                                                                                                                                                                                                                                                                                                                                                                                                                                                                                                                                                                                                                                                                                                                      
b7a17e76d3d17aa5fa0bdd08040d3129.torrent (45.58 KB, 下载次数: 0)

回复

使用道具 举报

小黑屋|西西论坛

本网站所有资源来自网络,如无意中侵犯了您的权益,请发邮件至 [email protected],立即清除相关链接

GMT+8, 2020-2-25 01:45 , Processed in 0.059538 second(s), 23 queries .

Powered by Discuz! X3.2

© 2001-2013 Comsenz Inc.

快速回复 返回顶部 返回列表