西西论坛

 找回密码
 立即注册
搜索

这里好无聊快来接我 Its.Boring.Here.Pick.Me.Up.2018.JAPANESE.1080p.Bl...

[复制链接]
电影首发 发表于 2020-1-28 12:37:35 | 显示全部楼层 |阅读模式
帖子完整标题:这里好无聊快来接我 Its.Boring.Here.Pick.Me.Up.2018.JAPANESE.1080p.BluRay.x264.DTS-iKiW 9.01GB




◎译  名 这里好无聊,快来接我 / Side Job / 到这里迎接无聊
◎片  名 ここは退屈迎えに来て
◎年  代 2018
◎产  地 日本
◎类  别 剧情
◎语  言 日语
◎上映日期 2018-10-09(温哥华电影节) / 2018-10-19(日本)
◎bt电影天堂 www.btddy.com
◎片  长 98分钟
◎导  演 广木隆一 Ryuichi Hiroki
◎编  剧 樱井智也 Tomonari Sakurai / 山内麻里子 Mariko Yamauchi
◎主  演 桥本爱 Ai Hashimoto
       门胁麦 Mugi Kadowaki
       成田凌 Ryo Narita
       渡边大知 Daichi Watanabe
       岸井雪乃 Yukino Kishii
       内田理央 Rio Uchida
       柳百合菜 Yurina Yanagi
       片山友希 Yuki Katayama
       槙田雄司 Makita Sports
       泷内公美 Kumi Takiuchi


◎标  签 日本 | 2018 | 青春 | 剧情 | 小说改编 | 映画 | 成长 | 人生

◎简  介  

  原作山内玛丽子另一部知名小说宣布映画化,桥本爱主演,门脇麦&成田凌共演,广木隆一导演作品。故事以日趋单一化,缺乏独创性的社会背景展开,描写当代年轻人寻找属于自己生活空间的青春物语。
  目前电影已经拍摄完毕,今年秋季公映。
Video
ID                                       : 1
Format                                   : AVC
Format/Info                              : Advanced Video Codec
Format settings                          : CABAC / 4 Ref Frames
Format settings, CABAC                   : Yes
Format settings, Reference frames        : 4 frames
Codec ID                                 : V_MPEG4/ISO/AVC
Duration                                 : 1 h 37 min
Bit rate                                 : 11.6 Mb/s
Width                                    : 1 920 pixels
Height                                   : 1 038 pixels
Display aspect ratio                     : 1.85:1
Frame rate mode                          : Constant
Frame rate                               : 23.976 (24000/1001) FPS
Color space                              : YUV
Chroma subsampling                       : 4:2:0
Bit depth                                : 8 bits
Scan type                                : Progressive
Bits/(Pixel*Frame)                       : 0.244
Stream size                              : 7.96 GiB (88%)
Writing library                          : x264 core 129 r2245+704+36 8e61944 tMod+MixAQ [1:2:0 X86_64]
Encoding settings                        : cabac=1 / ref=4 / deblock=1:-3:-3 / analyse=0x3:0x133 / me=umh / subme=11 / psy=1 / fade_compensate=0.00 / psy_rd=1.05:0.10 / mixed_ref=1 / me_range=64 / chroma_me=1 / trellis=2 / 8x8dct=1 / cqm=0 / deadzone=21,11 / fast_pskip=0 / chroma_qp_offset=-3 / threads=18 / lookahead_threads=3 / sliced_threads=0 / nr=0 / decimate=0 / interlaced=0 / bluray_compat=0 / constrained_intra=0 / fgo=0 / bframes=10 / b_pyramid=2 / b_adapt=2 / b_bias=0 / direct=3 / weightb=1 / open_gop=0 / weightp=2 / keyint=250 / keyint_min=23 / scenecut=40 / intra_refresh=0 / rc=2pass / mbtree=0 / bitrate=11650 / ratetol=1.0 / qcomp=0.70 / qpmin=0 / qpmax=69 / qpstep=4 / cplxblur=20.0 / qblur=0.5 / ip_ratio=1.40 / pb_ratio=1.30 / aq=1 / aq-strength=0.90 / aq-sensitivity=10.00 / aq-ifactor=1.00 / aq-pfactor=1.00 / aq-bfactor=1.00 / aq2=0
Language                                 : Japanese
Default                                  : Yes
Forced                                   : No

Audio
ID                                       : 2
Format                                   : DTS
Format/Info                              : Digital Theater Systems
Codec ID                                 : A_DTS
Duration                                 : 1 h 37 min
Bit rate mode                            : Constant
Bit rate                                 : 1 509 kb/s
Channel(s)                               : 6 channels
Channel layout                           : C L R Ls Rs LFE
Sampling rate                            : 48.0 kHz
Frame rate                               : 93.750 FPS (512 SPF)
Bit depth                                : 24 bits
Compression mode                         : Lossy
Stream size                              : 1.03 GiB (11%)
Language                                 : Japanese
Default                                  : Yes
Forced                                   : No

Text #1
ID                                       : 3
Format                                   : UTF-8
Codec ID                                 : S_TEXT/UTF8
Codec ID/Info                            : UTF-8 Plain Text
Duration                                 : 1 h 33 min
Bit rate                                 : 41 b/s
Count of elements                        : 1027
Stream size                              : 28.1 KiB (0%)
Language                                 : English
Default                                  : Yes
Forced                                   : No

Text #2
ID                                       : 4
Format                                   : ASS
Codec ID                                 : S_TEXT/ASS
Codec ID/Info                            : Advanced Sub Station Alpha
Duration                                 : 1 h 37 min
Bit rate                                 : 77 b/s
Count of elements                        : 1108
Compression mode                         : Lossless
Stream size                              : 55.2 KiB (0%)
Language                                 : Chinese
Default                                  : No
Forced                                   : No



                                                                                                                                                                                                        
                                                                                                                                                                                                                                                                                                                                                                                                                                                                                                                                                                                                                                                                                                                                                                                                                                                      
1c368bde7e54025bf765cf5d8cfc35ce.torrent (45.59 KB, 下载次数: 0)

回复

使用道具 举报

小黑屋|西西论坛

本网站所有资源来自网络,如无意中侵犯了您的权益,请发邮件至 [email protected],立即清除相关链接

GMT+8, 2020-3-1 00:14 , Processed in 0.078973 second(s), 23 queries .

Powered by Discuz! X3.2

© 2001-2013 Comsenz Inc.

快速回复 返回顶部 返回列表