西西论坛

 找回密码
 立即注册
搜索

恶霸警察 Jo.Pil-ho.The.Dawning.Rage.2019.720p.BluRay.x264-GiMCHi 5.46GB

[复制链接]
电影首发 发表于 2020-1-26 12:15:21 | 显示全部楼层 |阅读模式
子完整标题:恶霸警察 Jo.Pil-ho.The.Dawning.Rage.2019.720p.BluRay.x264-GiMCHi 5.46GB




◎译  名 恶霸警察 / Bad Police / Jo Pil-ho: The Dawning Rage / 恶质警察
◎片  名 ????
◎年  代 2019
◎产  地 韩国
◎类  别 剧情 / 犯罪
◎语  言 韩语
◎上映日期 2019-03-20(韩国)
◎IMDb评分  6.2/10 from 815 users
◎片  长 127分钟
◎导  演 李桢凡 Jeong-beom Lee
◎编  剧 李桢凡 Jeong-beom Lee
◎主  演 李善均 Seon-gyun Lee
       全素妮 Jeon So-nee
       朴海俊 Hea-jun Park
       宋永彰 Young-chang Song
       朴秉恩 Byung-eun Park
       金敏载 Kim Min-jae
       郑家蓝 Ga-ram  Jung
       尹亨国 Hyeong-gook Im


◎标  签 犯罪 | 韩国 | 动作 | 社会 | 2019 | 剧情 | 小人物 | 人性

◎简  介  

  为了躲避穷追不舍的内务探员,腐败的员警勉为其难地和叛逆青少女联手,企图在为时已晚前揭开阴谋。
Video
ID                                       : 1
Format                                   : AVC
Format/Info                              : Advanced Video Codec
Format settings                          : CABAC / 5 Ref Frames
Format settings, CABAC                   : Yes
Format settings, Reference frames        : 5 frames
Codec ID                                 : V_MPEG4/ISO/AVC
Duration                                 : 2 h 7 min
Bit rate                                 : 4 636 kb/s
Width                                    : 1 280 pixels
Height                                   : 536 pixels
Display aspect ratio                     : 2.40:1
Frame rate mode                          : Constant
Frame rate                               : 23.976 (24000/1001) FPS
Color space                              : YUV
Chroma subsampling                       : 4:2:0
Bit depth                                : 8 bits
Scan type                                : Progressive
Bits/(Pixel*Frame)                       : 0.282
Stream size                              : 4.12 GiB (75%)
Writing library                          : x264 core 159 r2991 1771b55
Encoding settings                        : cabac=1 / ref=5 / deblock=1:0:0 / analyse=0x3:0x133 / me=umh / subme=7 / psy=1 / psy_rd=1.00:0.00 / mixed_ref=1 / me_range=16 / chroma_me=1 / trellis=1 / 8x8dct=1 / cqm=0 / deadzone=21,11 / fast_pskip=0 / chroma_qp_offset=-2 / threads=12 / lookahead_threads=2 / sliced_threads=0 / nr=0 / decimate=1 / interlaced=0 / bluray_compat=0 / constrained_intra=0 / bframes=3 / b_pyramid=2 / b_adapt=2 / b_bias=0 / direct=3 / weightb=1 / open_gop=0 / weightp=2 / keyint=240 / keyint_min=23 / scenecut=40 / intra_refresh=0 / rc_lookahead=50 / rc=2pass / mbtree=1 / bitrate=4636 / ratetol=1.0 / qcomp=0.60 / qpmin=0 / qpmax=69 / qpstep=4 / cplxblur=20.0 / qblur=0.5 / ip_ratio=1.40 / aq=1:1.00
Language                                 : English
Default                                  : Yes
Forced                                   : No

Audio
ID                                       : 2
Format                                   : DTS
Format/Info                              : Digital Theater Systems
Codec ID                                 : A_DTS
Duration                                 : 2 h 7 min
Bit rate mode                            : Constant
Bit rate                                 : 1 509 kb/s
Channel(s)                               : 6 channels
Channel layout                           : C L R Ls Rs LFE
Sampling rate                            : 48.0 kHz
Frame rate                               : 93.750 FPS (512 SPF)
Bit depth                                : 24 bits
Compression mode                         : Lossy
Stream size                              : 1.34 GiB (25%)
Title                                    : Korean
Language                                 : Korean
Default                                  : Yes
Forced                                   : No

Text
ID                                       : 3
Format                                   : UTF-8
Codec ID                                 : S_TEXT/UTF8
Codec ID/Info                            : UTF-8 Plain Text
Duration                                 : 2 h 2 min
Bit rate                                 : 38 b/s
Count of elements                        : 1399
Stream size                              : 34.6 KiB (0%)
Title                                    : English
Language                                 : English
Default                                  : Yes
Forced                                   : No

Menu
00:00:00.000                             : en:Chapter 01
00:07:01.379                             : en:Chapter 02
00:20:06.956                             : en:Chapter 03
00:29:28.392                             : en:Chapter 04
00:39:08.805                             : en:Chapter 05
00:51:37.303                             : en:Chapter 06
01:05:09.948                             : en:Chapter 07
01:18:09.351                             : en:Chapter 08
01:32:48.605                             : en:Chapter 09
01:42:07.872                             : en:Chapter 10
01:55:39.891                             : en:Chapter 11
02:02:53.992                             : en:Chapter 12



                                                                                                                                                                                                        
                                                                                                                                                                                                                                                                                                                                                                                                                                                                                                                                                                                                                                                                                                                                                                                                                                                      
696d185442c36b7cba75688d2403d451.torrent (27.95 KB, 下载次数: 0)

回复

使用道具 举报

小黑屋|西西论坛

本网站所有资源来自网络,如无意中侵犯了您的权益,请发邮件至 [email protected],立即清除相关链接

GMT+8, 2020-2-26 02:35 , Processed in 0.057300 second(s), 23 queries .

Powered by Discuz! X3.2

© 2001-2013 Comsenz Inc.

快速回复 返回顶部 返回列表