西西论坛

 找回密码
 立即注册
搜索

提高音量!我根本听不懂你在唱什么!!/大声点笨蛋!完...

[复制链接]
电影首发 发表于 2020-1-24 09:11:14 | 显示全部楼层 |阅读模式
帖子完整标题:提高音量!我根本听不懂你在唱什么!!/大声点笨蛋!完全不知道你在唱什么 LOUDER.Cant.Hear.What.Youre.Singin.Wimp.2018.JAPANESE.1080p.BluRay.x264.DTS-iKiW 9.75GB




◎译  名 提高音量!我根本听不懂你在唱什么!! / 大声点笨蛋!完全不知道你在唱什么(台)
◎片  名 音量を上げろタコ!なに歌ってんのか全然わかんねぇんだよ!!
◎年  代 2018
◎产  地 日本
◎类  别 喜剧
◎语  言 日语
◎上映日期 2018-10-12(日本)
◎IMDb评分  5.3/10 from 45 users
◎片  长 106分钟
◎导  演 三木聪 Miki Satoshi
◎编  剧 三木聪 Miki Satoshi
◎主  演 阿部隆史 Sadao Abe
       吉冈里帆 Riho Yoshioka
       千叶雄大 Yudai Chiba
       麻生久美子 Kumiko Aso
       小峠英二 Eiji Kotouge
       片山友希 Yuki Katayama
       中村优子 Y?ko Nakamura
       池津祥子 Shoko Ikezu
       森下能幸 Yoshiyuki Morishita
       岩松了 Ry? Iwamatsu
       布施绘里 Eri Fuse
       田中哲司 Tetsushi Tanaka
       松尾铃木 Suzuki Matsuo


◎标  签 日本 | 2018 | 音乐 | 喜剧 | 映画 | 摇滚 | 剧情 | 脱力系

◎简  介  

  阿部隆史&吉冈美帆将共演三木聪最新摇滚喜剧映画「音量を上げろタコ!なに歌ってんのか全然わかんねぇんだよ!!」,吉冈里帆将首度披露歌声。
  电影将于2018年公映。
Video
ID                                       : 1
Format                                   : AVC
Format/Info                              : Advanced Video Codec
Format settings                          : CABAC / 5 Ref Frames
Format settings, CABAC                   : Yes
Format settings, Reference frames        : 5 frames
Codec ID                                 : V_MPEG4/ISO/AVC
Duration                                 : 1 h 46 min
Bit rate                                 : 12.3 Mb/s
Width                                    : 1 920 pixels
Height                                   : 804 pixels
Display aspect ratio                     : 2.40:1
Frame rate mode                          : Constant
Frame rate                               : 23.976 (24000/1001) FPS
Color space                              : YUV
Chroma subsampling                       : 4:2:0
Bit depth                                : 8 bits
Scan type                                : Progressive
Bits/(Pixel*Frame)                       : 0.333
Stream size                              : 9.18 GiB (94%)
Writing library                          : x264 core 129 r2245+704+36 8e61944 tMod+MixAQ
Encoding settings                        : cabac=1 / ref=5 / deblock=1:-1:-1 / analyse=0x3:0x133 / me=umh / subme=11 / psy=1 / fade_compensate=0.00 / psy_rd=1.05:0.10 / mixed_ref=1 / me_range=64 / chroma_me=1 / trellis=2 / 8x8dct=1 / cqm=0 / deadzone=21,11 / fast_pskip=0 / chroma_qp_offset=-3 / threads=18 / lookahead_threads=3 / sliced_threads=0 / nr=0 / decimate=0 / interlaced=0 / bluray_compat=0 / constrained_intra=0 / fgo=0 / bframes=10 / b_pyramid=2 / b_adapt=2 / b_bias=0 / direct=3 / weightb=1 / open_gop=0 / weightp=2 / keyint=250 / keyint_min=23 / scenecut=40 / intra_refresh=0 / rc=2pass / mbtree=0 / bitrate=12328 / ratetol=1.0 / qcomp=0.70 / qpmin=0 / qpmax=69 / qpstep=4 / cplxblur=20.0 / qblur=0.5 / ip_ratio=1.40 / pb_ratio=1.30 / aq=1 / aq-strength=0.85 / aq-sensitivity=10.00 / aq-ifactor=1.00 / aq-pfactor=1.00 / aq-bfactor=1.00 / aq2=0
Language                                 : Japanese
Default                                  : Yes
Forced                                   : No

Audio
ID                                       : 2
Format                                   : DTS
Format/Info                              : Digital Theater Systems
Codec ID                                 : A_DTS
Duration                                 : 1 h 46 min
Bit rate mode                            : Constant
Bit rate                                 : 768 kb/s
Channel(s)                               : 6 channels
Channel layout                           : C L R Ls Rs LFE
Sampling rate                            : 48.0 kHz
Frame rate                               : 93.750 FPS (512 SPF)
Bit depth                                : 24 bits
Compression mode                         : Lossy
Stream size                              : 586 MiB (6%)
Language                                 : Japanese
Default                                  : Yes
Forced                                   : No

Text #1
ID                                       : 3
Format                                   : UTF-8
Codec ID                                 : S_TEXT/UTF8
Codec ID/Info                            : UTF-8 Plain Text
Duration                                 : 1 h 45 min
Bit rate                                 : 47 b/s
Count of elements                        : 1330
Stream size                              : 36.8 KiB (0%)
Language                                 : English
Default                                  : Yes
Forced                                   : No

Text #2
ID                                       : 4
Format                                   : UTF-8
Codec ID                                 : S_TEXT/UTF8
Codec ID/Info                            : UTF-8 Plain Text
Duration                                 : 1 h 43 min
Bit rate                                 : 34 b/s
Count of elements                        : 1082
Stream size                              : 26.0 KiB (0%)
Title                                    : Simplified
Language                                 : Chinese
Default                                  : No
Forced                                   : No

Text #3
ID                                       : 5
Format                                   : UTF-8
Codec ID                                 : S_TEXT/UTF8
Codec ID/Info                            : UTF-8 Plain Text
Duration                                 : 1 h 43 min
Bit rate                                 : 34 b/s
Count of elements                        : 1082
Stream size                              : 26.0 KiB (0%)
Title                                    : Traditional
Language                                 : Chinese
Default                                  : No
Forced                                   : No

Menu
00:00:00.000                             : en:第 01 章
00:09:37.410                             : en:第 02 章
00:14:49.138                             : en:第 03 章
00:18:32.945                             : en:第 04 章
00:22:18.754                             : en:第 05 章
00:29:41.279                             : en:第 06 章
00:38:05.866                             : en:第 07 章
00:45:09.790                             : en:第 08 章
00:48:42.502                             : en:第 09 章
00:52:42.659                             : en:第 10 章
00:58:49.526                             : en:第 11 章
01:05:58.746                             : en:第 12 章
01:11:53.851                             : en:第 13 章
01:15:26.438                             : en:第 14 章
01:26:31.394                             : en:第 15 章
01:31:04.500                             : en:第 16 章
01:37:05.486                             : en:第 17 章
01:42:38.152                             : en:第 18 章



                                                                                                                                                                                                        
                                                                                                                                                                                                                                                                                                                                                                                                                                                                                                                                                                                                                                                                                                                                                                                                                                                      
e49aef26f90ab512fcbdabbb0511c999.torrent (49.35 KB, 下载次数: 0)

回复

使用道具 举报

小黑屋|西西论坛

本网站所有资源来自网络,如无意中侵犯了您的权益,请发邮件至 [email protected],立即清除相关链接

GMT+8, 2020-2-25 02:44 , Processed in 0.061669 second(s), 23 queries .

Powered by Discuz! X3.2

© 2001-2013 Comsenz Inc.

快速回复 返回顶部 返回列表