西西论坛

 找回密码
 立即注册
搜索

救火奶爸/烈火湊仔公 Playing.with.Fire.2019.720p.BluRay.x264-AAA 4.37GB

[复制链接]
电影首发 发表于 2020-1-24 09:00:56 | 显示全部楼层 |阅读模式
子完整标题:救火奶爸/烈火湊仔公 Playing.with.Fire.2019.720p.BluRay.x264-AAA 4.37GB




◎译  名 救火奶爸 / 烈火湊仔公(港) / 玩火
◎片  名 Playing with Fire
◎年  代 2019
◎产  地 美国
◎类  别 喜剧 / 家庭
◎语  言 英语
◎上映日期 2019-11-08(美国)
◎IMDb评分  4.7/10 from 2581 users
◎片  长 96分钟
◎导  演 安迪·菲克曼 Andy Fickman
◎编  剧 马特·利伯曼 Matt Lieberman / 丹·埃文 Dan Ewen
◎主  演 约翰·塞纳 John Cena
       布里安娜·希德布兰德 Brianna Hildebrand
       朱迪·格雷尔 Judy Greer
       科甘-迈克尔·凯 Keegan-Michael Key
       约翰·雷吉扎莫 John Leguizamo
       克里斯蒂安·康佛瑞 Christian Convery
       芬利·罗斯·斯莱特 Finley Rose Slater
       丹尼斯·海斯伯特 Dennis Haysbert
       库尔特·隆 Kurt Long
       泰勒·梅恩 Tyler Mane
       贾思敏·维嘉 Jasmine Vega
       琳达·博伊德 Lynda Boyd


◎标  签 喜剧 | 美国 | 家庭 | 2019 | 派拉蒙 | 欧美 | 动画 | 日本

◎简  介  

  讲述了“赵喜娜”率队的消防员们在一次救火行动后竟遭遇人生最大挑战:要照顾从火场救出的三位萌娃,直到他们被爸妈接走。队员们“被迫营业”变身奶爸,人小鬼大的姐弟三人组彻底颠覆了消防队的日常生活,状况百出笑料不断,而烈火英雄硬核带娃竟也萌出天际!影片将于2019年11月8日北美上映。
Video
ID                                       : 1
Format                                   : AVC
Format/Info                              : Advanced Video Codec
Format settings                          : CABAC / 5 Ref Frames
Format settings, CABAC                   : Yes
Format settings, Reference frames        : 5 frames
Codec ID                                 : V_MPEG4/ISO/AVC
Duration                                 : 1 h 35 min
Bit rate                                 : 5 007 kb/s
Width                                    : 1 280 pixels
Height                                   : 720 pixels
Display aspect ratio                     : 16:9
Frame rate mode                          : Constant
Frame rate                               : 23.976 (24000/1001) FPS
Color space                              : YUV
Chroma subsampling                       : 4:2:0
Bit depth                                : 8 bits
Scan type                                : Progressive
Bits/(Pixel*Frame)                       : 0.227
Stream size                              : 3.36 GiB (77%)
Title                                    : Playing.with.Fire.2019.720p.BluRay.x264-AAA
Writing library                          : x264 core 157 r2969 d4099dd
Encoding settings                        : cabac=1 / ref=5 / deblock=1:0:0 / analyse=0x3:0x113 / me=umh / subme=8 / psy=1 / psy_rd=1.00:0.00 / mixed_ref=1 / me_range=16 / chroma_me=1 / trellis=1 / 8x8dct=1 / cqm=0 / deadzone=21,11 / fast_pskip=1 / chroma_qp_offset=-2 / threads=22 / lookahead_threads=3 / sliced_threads=0 / nr=0 / decimate=1 / interlaced=0 / bluray_compat=0 / constrained_intra=0 / bframes=3 / b_pyramid=2 / b_adapt=2 / b_bias=0 / direct=3 / weightb=1 / open_gop=0 / weightp=2 / keyint=240 / keyint_min=23 / scenecut=40 / intra_refresh=0 / rc_lookahead=50 / rc=2pass / mbtree=1 / bitrate=5007 / ratetol=1.0 / qcomp=0.60 / qpmin=0 / qpmax=69 / qpstep=4 / cplxblur=20.0 / qblur=0.5 / ip_ratio=1.40 / aq=1:1.00
Default                                  : Yes
Forced                                   : No

Audio
ID                                       : 2
Format                                   : DTS
Format/Info                              : Digital Theater Systems
Codec ID                                 : A_DTS
Duration                                 : 1 h 35 min
Bit rate mode                            : Constant
Bit rate                                 : 1 509 kb/s
Channel(s)                               : 6 channels
Channel layout                           : C L R Ls Rs LFE
Sampling rate                            : 48.0 kHz
Frame rate                               : 93.750 FPS (512 SPF)
Bit depth                                : 24 bits
Compression mode                         : Lossy
Stream size                              : 1.01 GiB (23%)
Title                                    : English Digital Theater Systems (DTS)
Language                                 : English
Default                                  : Yes
Forced                                   : No

Menu
00:00:00.000                             : :Chapter 01
00:04:34.483                             : :Chapter 02
00:11:38.823                             : :Chapter 03
00:18:42.246                             : :Chapter 04
00:23:04.675                             : :Chapter 05
00:28:04.224                             : :Chapter 06
00:32:23.984                             : :Chapter 07
00:41:30.571                             : :Chapter 08
00:48:22.399                             : :Chapter 09
00:52:17.760                             : :Chapter 10
00:57:26.693                             : :Chapter 11
01:02:15.231                             : :Chapter 12
01:10:37.525                             : :Chapter 13
01:16:56.237                             : :Chapter 14
01:23:43.852                             : :Chapter 15
01:29:19.271                             : :Chapter 16



                                                                                                                                                                                                        
                                                                                                                                                                                                                                                                                                                                                                                                                                                                                                                                                                                                                                                                                                                                                                                                                                                      
a91b0e1aa6376c228267ab7dece2034f.torrent (44.32 KB, 下载次数: 0)

回复

使用道具 举报

小黑屋|西西论坛

本网站所有资源来自网络,如无意中侵犯了您的权益,请发邮件至 [email protected],立即清除相关链接

GMT+8, 2020-2-26 03:14 , Processed in 0.059929 second(s), 23 queries .

Powered by Discuz! X3.2

© 2001-2013 Comsenz Inc.

快速回复 返回顶部 返回列表