西西论坛

 找回密码
 立即注册
搜索

睡梦医生 Doctor.Sleep.2019.DC.720p.BluRay.x264-AAA 6.55GB

[复制链接]
电影首发 发表于 2020-1-24 09:00:56 | 显示全部楼层 |阅读模式
帖子完整标题:睡梦医生 Doctor.Sleep.2019.DC.720p.BluRay.x264-AAA 6.55GB




◎译  名 睡梦医生 / Dr. Sleep / 《闪灵》续集 / 安眠医生(台) / 睡眠医师 / 睡眠医生 / 长眠医生
◎片  名 Doctor Sleep
◎年  代 2019
◎产  地 美国 / 英国
◎类  别 剧情 / 惊悚 / 恐怖 / 奇幻
◎语  言 英语
◎上映日期 2019-10-30(法国) / 2019-10-31(英国) / 2019-11-08(美国)
◎IMDb评分  7.5/10 from 50008 users
◎片  长 151分钟
◎导  演 迈克·弗拉纳根 Mike Flanagan
◎编  剧 斯蒂芬·金 Stephen King / 迈克·弗拉纳根 Mike Flanagan
◎主  演 伊万·麦克格雷格 Ewan McGregor
       丽贝卡·弗格森 Rebecca Ferguson
       凯丽·卡伦 Kyliegh Curran
       雅各布·特伦布莱 Jacob Tremblay
       卡雷尔·斯特鲁基 Carel Struycken
       丹尼·劳埃德 Danny Lloyd
       艾米丽·阿琳·林德 Emily Alyn Lind
       克利夫·柯蒂斯 Cliff Curtis
       扎恩·迈克拉农 Zahn McClarnon
       切尔西·塔尔玛琪 Chelsea Talmadge
       艾丽克斯·埃索 Alex Essoe
       布鲁斯·格林伍德 Bruce Greenwood
       乔赛琳·唐娜休 Jocelin Donahue
       卡尔·卢波利 Carl Lumbly
       维奥莱特·麦格劳 Violet McGraw
       凯瑟琳·帕克 Catherine Parker
       罗伯特·朗斯特里特 Robert Longstreet
       赛琳娜·安杜兹 Selena Anduze
       尼古拉斯·普罗约尔 Nicholas Pryor
       贝瑟妮·安妮·林德 Bethany Anne Lind
       查尔斯·格林 Charles Green
       扎克瑞·莫莫 Zackary Momoh
       杰森·戴维斯 Jason Davis
       胡安·贾斯帕 Juan Gaspard
       路易斯·桑切斯 Luis Sanchez


◎标  签 恐怖 | 惊悚 | 闪灵续集 | 美国 | 灵异 | 2019 | 小说改编 | 奇幻

◎简  介  

  《闪灵》续集《睡眠医师》(Doctor Sleep)北美定档2020年1月24日,依然根据斯蒂芬·金的同名小说改编,迈克·弗拉纳甘(《杰罗德游戏》《死亡占卜2》《梦醒之前》)执导。本片聚焦闪灵里的儿子Danny Torrance,经历了Overlook Hotel里可怕的童年时光后,他已经流浪了几十年,渴望摆脱父亲的绝望、酒精、暴力等特质,最终定居在新罕布什尔州的一个小镇上,这是一个支持他的AA制社区,他在一家养老院找到工作,在那里他残余的“闪灵”之力为垂死之人提供了至关重要的最终安慰。在一只有预知能力的猫的帮助下,他成为了“睡眠医师”。2001年女婴Abra Stone诞生,她逐渐开始展现超自然之力,似乎预测到了911事件。她缓慢而无意地与Danny建立起心灵感应的纽带,随着她的成长,力量也比Danny的更加强大,Danny被重新激起他心中的恶魔,并召唤他为Abra的灵魂和生存战斗。
  弗拉纳甘重写剧本,此前由Akiva Goldsman改编。
Video
ID                                       : 1
Format                                   : AVC
Format/Info                              : Advanced Video Codec
Format settings                          : CABAC / 5 Ref Frames
Format settings, CABAC                   : Yes
Format settings, Reference frames        : 5 frames
Codec ID                                 : V_MPEG4/ISO/AVC
Duration                                 : 3 h 0 min
Bit rate                                 : 4 560 kb/s
Width                                    : 1 280 pixels
Height                                   : 696 pixels
Display aspect ratio                     : 1.85:1
Frame rate mode                          : Constant
Frame rate                               : 23.976 (24000/1001) FPS
Color space                              : YUV
Chroma subsampling                       : 4:2:0
Bit depth                                : 8 bits
Scan type                                : Progressive
Bits/(Pixel*Frame)                       : 0.213
Stream size                              : 5.74 GiB (88%)
Title                                    : Doctor.Sleep.2019.DiRECTORS.CUT.720p.BluRay.x264-AAA
Writing library                          : x264 core 157 r2969 d4099dd
Encoding settings                        : cabac=1 / ref=5 / deblock=1:0:0 / analyse=0x3:0x113 / me=umh / subme=8 / psy=1 / psy_rd=1.00:0.00 / mixed_ref=1 / me_range=16 / chroma_me=1 / trellis=1 / 8x8dct=1 / cqm=0 / deadzone=21,11 / fast_pskip=1 / chroma_qp_offset=-2 / threads=22 / lookahead_threads=3 / sliced_threads=0 / nr=0 / decimate=1 / interlaced=0 / bluray_compat=0 / constrained_intra=0 / bframes=3 / b_pyramid=2 / b_adapt=2 / b_bias=0 / direct=3 / weightb=1 / open_gop=0 / weightp=2 / keyint=240 / keyint_min=23 / scenecut=40 / intra_refresh=0 / rc_lookahead=50 / rc=2pass / mbtree=1 / bitrate=4560 / ratetol=1.0 / qcomp=0.60 / qpmin=0 / qpmax=69 / qpstep=4 / cplxblur=20.0 / qblur=0.5 / ip_ratio=1.40 / aq=1:1.00
Default                                  : Yes
Forced                                   : No

Audio
ID                                       : 2
Format                                   : AC-3
Format/Info                              : Audio Coding 3
Commercial name                          : Dolby Digital
Codec ID                                 : A_AC3
Duration                                 : 3 h 0 min
Bit rate mode                            : Constant
Bit rate                                 : 640 kb/s
Channel(s)                               : 6 channels
Channel layout                           : L R C LFE Ls Rs
Sampling rate                            : 48.0 kHz
Frame rate                               : 31.250 FPS (1536 SPF)
Bit depth                                : 16 bits
Compression mode                         : Lossy
Stream size                              : 825 MiB (12%)
Title                                    : English Dolby Digital (AC3)
Language                                 : English
Service kind                             : Complete Main
Default                                  : Yes
Forced                                   : No

Menu
00:00:00.000                             : :Chapter 01
00:08:29.300                             : :Chapter 02
00:16:39.624                             : :Chapter 03
00:28:01.638                             : :Chapter 04
00:36:45.453                             : :Chapter 05
00:44:42.763                             : :Chapter 06
00:53:24.368                             : :Chapter 07
01:03:41.484                             : :Chapter 08
01:13:39.457                             : :Chapter 09
01:22:05.963                             : :Chapter 10
01:28:56.331                             : :Chapter 11
01:37:13.244                             : :Chapter 12
01:46:31.594                             : :Chapter 13
01:55:11.530                             : :Chapter 14
02:06:20.323                             : :Chapter 15
02:14:58.590                             : :Chapter 16
02:21:33.402                             : :Chapter 17
02:31:58.359                             : :Chapter 18
02:42:26.403                             : :Chapter 19
02:54:07.437                             : :Chapter 20



                                                                                                                                                                                                        
                                                                                                                                                                                                                                                                                                                                                                                                                                                                                                                                                                                                                                                                                                                                                                                                                                                      
0ed73818e4dd18324acd51453e75d5dd.torrent (33.39 KB, 下载次数: 0)

回复

使用道具 举报

小黑屋|西西论坛

本网站所有资源来自网络,如无意中侵犯了您的权益,请发邮件至 [email protected],立即清除相关链接

GMT+8, 2020-2-26 04:42 , Processed in 0.076882 second(s), 23 queries .

Powered by Discuz! X3.2

© 2001-2013 Comsenz Inc.

快速回复 返回顶部 返回列表