西西论坛

 找回密码
 立即注册
搜索

琳达·朗斯塔特:我的声音 Linda.Ronstadt.The.Sound.of.My.Voice.2019.72... ...

[复制链接]
电影首发 发表于 2020-1-24 09:00:56 | 显示全部楼层 |阅读模式
帖子完整标题:琳达·朗斯塔特:我的声音 Linda.Ronstadt.The.Sound.of.My.Voice.2019.720p.BluRay.x264-YOL0W 4.37GB




◎译  名 琳达·朗斯塔特:我的声音
◎片  名 Linda Ronstadt: The Sound of My Voice
◎年  代 2019
◎产  地 美国
◎类  别 纪录片 / 音乐
◎语  言 英语
◎上映日期 2019-04-26(美国)
◎IMDb评分  8.1/10 from 961 users
◎片  长 95分钟
◎导  演 罗伯·爱泼斯坦 Rob Epstein / 杰弗里·弗里德曼 Jeffrey Friedman
◎主  演 琳达·朗斯塔特 Linda Ronstadt
       Bonnie Raitt
       多莉·帕顿 Dolly Parton
       Emmylou Harris
       杰克逊·布朗恩 Jackson Browne
       Maria Muldaur
       唐·亨利 Don Henley
       大卫·格芬 David Geffen
       卡梅伦·克罗 Cameron Crowe
       亚伦·内维尔 Aaron Neville
       皮特·阿瑟 Peter Asher
       Ruben Blades
       Karla Bonoff
       John Boylor
       约翰尼·卡森 Johnny Carson
       约翰尼·卡什 Johnny Cash
       迪克·卡维特 Dick Cavett
       莱·库德 Ry Cooder
       雪儿·克劳 Sheryl Crow
       格伦·弗雷 Glenn Frey
       莱娜·霍恩 Lena Horne
       凯文·克莱恩 Kevin Kline
       史蒂薇·妮克斯 Stevie Nicks
       Nelson Riddle
       J.D. Souther
       哈利·戴恩·斯坦通 Harry Dean Stanton
       林哥·斯塔尔 Ringo Starr
       嘉丽·安德伍德 Carrie Underwood
       Hank Williams
       尼尔·杨 Neil Young


◎标  签 纪录片 | 音乐 | 美国 | 传记 | 2019 | 2010s

◎简  介  

  With one of the most memorably stunning voices that has ever hit the airwaves, Linda Ronstadt burst onto the 1960s folk rock music scene in her early twenties.

◎获奖情况  

  第70届美国剪辑工会奖(2020)
  纪录片最佳剪辑(提名) Heidi Scharfe / 杰克·帕辛斯基

  第67届美国音效剪辑协会奖(2020)
  金卷轴奖 最佳纪录片音效剪辑(提名)
Video
ID                                       : 1
Format                                   : AVC
Format/Info                              : Advanced Video Code
Format settings                          : CABAC / 8 Ref Frames
Format settings, CABAC                   : Yes
Format settings, Reference frames        : 8 frames
Codec ID                                 : V_MPEG4/ISO/AVC
Duration                                 : 1 h 33 min
Bit rate                                 : 5 159 kb/s
Width                                    : 1 280 pixels
Height                                   : 720 pixels
Display aspect ratio                     : 16:9
Frame rate mode                          : Constant
Frame rate                               : 23.976 (24000/1001) FPS
Color space                              : YUV
Chroma subsampling                       : 4:2:0
Bit depth                                : 8 bits
Scan type                                : Progressive
Bits/(Pixel*Frame)                       : 0.233
Stream size                              : 3.38 GiB (77%)
Writing library                          : x264 core 159 r2991 1771b55
Encoding settings                        : cabac=1 / ref=8 / deblock=1:-3:-3 / analyse=0x3:0x133 / me=umh / subme=7 / psy=1 / psy_rd=1.00:0.00 / mixed_ref=1 / me_range=16 / chroma_me=1 / trellis=2 / 8x8dct=1 / cqm=0 / deadzone=21,11 / fast_pskip=1 / chroma_qp_offset=-2 / threads=16 / lookahead_threads=2 / sliced_threads=0 / nr=0 / decimate=1 / interlaced=0 / bluray_compat=0 / constrained_intra=0 / bframes=3 / b_pyramid=2 / b_adapt=2 / b_bias=0 / direct=3 / weightb=1 / open_gop=0 / weightp=2 / keyint=250 / keyint_min=23 / scenecut=40 / intra_refresh=0 / rc_lookahead=50 / rc=2pass / mbtree=1 / bitrate=5159 / ratetol=1.0 / qcomp=0.60 / qpmin=0 / qpmax=69 / qpstep=4 / cplxblur=20.0 / qblur=0.5 / ip_ratio=1.40 / aq=1:1.00
Language                                 : English
Default                                  : Yes
Forced                                   : No
Color range                              : Limited
Matrix coefficients                      : BT.709

Audio
ID                                       : 2
Format                                   : DTS
Format/Info                              : Digital Theater Systems
Codec ID                                 : A_DTS
Duration                                 : 1 h 33 min
Bit rate mode                            : Constant
Bit rate                                 : 1 509 kb/s
Channel(s)                               : 6 channels
Channel layout                           : C L R Ls Rs LFE
Sampling rate                            : 48.0 kHz
Frame rate                               : 93.750 FPS (512 SPF)
Bit depth                                : 24 bits
Compression mode                         : Lossy
Stream size                              : 1 013 MiB (23%)
Title                                    : English
Language                                 : English
Default                                  : Yes
Forced                                   : No

Menu
00:00:00.000                             : en:Chapter 01
00:08:41.104                             : en:Chapter 02
00:21:40.090                             : en:Chapter 03
00:27:43.036                             : en:Chapter 04
00:37:03.388                             : en:Chapter 05
00:47:23.841                             : en:Chapter 06
00:55:47.469                             : en:Chapter 07
01:04:59.062                             : en:Chapter 08
01:14:44.188                             : en:Chapter 09
01:21:49.655                             : en:Chapter 10



                                                                                                                                                                                                        
                                                                                                                                                                                                                                                                                                                                                                                                                                                                                                                                                                                                                                                                                                                                                                                                                                                      
10322e1f6d3cb3deebbcce97c824910f.torrent (44.3 KB, 下载次数: 0)

回复

使用道具 举报

小黑屋|西西论坛

本网站所有资源来自网络,如无意中侵犯了您的权益,请发邮件至 [email protected],立即清除相关链接

GMT+8, 2020-2-26 03:52 , Processed in 0.059364 second(s), 23 queries .

Powered by Discuz! X3.2

© 2001-2013 Comsenz Inc.

快速回复 返回顶部 返回列表