西西论坛

 找回密码
 立即注册
搜索

今天也是招人嫌的便当 Bento.Harassment.2019.JAPANESE.720p.BluRay.x26...

[复制链接]
电影首发 发表于 2020-1-21 11:42:47 | 显示全部楼层 |阅读模式
帖子完整标题:今天也是招人嫌的便当 Bento.Harassment.2019.JAPANESE.720p.BluRay.x264-iKiW 4.36GB




◎译  名 今天也是招人嫌的便当 / Bento Harassment / Ky? mo iyagarase bent? / 恶搞便当反「激」战(港)
◎片  名 今日も嫌がらせ弁当
◎年  代 2019
◎产  地 日本
◎类  别 剧情 / 家庭
◎语  言 日语
◎上映日期 2019-06-15(上海电影节) / 2019-06-28(日本)
◎IMDb评分  6.8/10 from 86 users
◎片  长 106分钟
◎导  演 塚本连平 Renpei Tsukamoto
◎编  剧 塚本连平 Renpei Tsukamoto
◎主  演 筱原凉子 Ryoko Shinohara
       芳根京子 Ky?ko Yoshine
       松井玲奈 Rena Matsui
       佐藤宽太 Kanta Sato
       佐藤隆太 Ry?ta Sat?


◎标  签 日本 | 家庭 | 日本电影 | 亲情 | 2019 | 筱原凉子 | 日影 | 芳根京子

◎简  介  

  香织( 筱原凉子 饰 )独自抚养两个女儿,小女儿读高中后进入叛逆期,交流困难,她就开始为女儿制作“招人嫌的便当”,还在博客上更新这些便当的日常,她在便当里拼出一些句子和图案,便当成为了母女二人沟通的途径,而女儿最终也理解了妈妈的心。
Video
ID                                       : 1
Format                                   : AVC
Format/Info                              : Advanced Video Codec
Format settings                          : CABAC / 9 Ref Frames
Format settings, CABAC                   : Yes
Format settings, Reference frames        : 9 frames
Codec ID                                 : V_MPEG4/ISO/AVC
Duration                                 : 1 h 46 min
Bit rate                                 : 5 238 kb/s
Width                                    : 1 280 pixels
Height                                   : 694 pixels
Display aspect ratio                     : 1.85:1
Frame rate mode                          : Constant
Frame rate                               : 23.976 (24000/1001) FPS
Color space                              : YUV
Chroma subsampling                       : 4:2:0
Bit depth                                : 8 bits
Scan type                                : Progressive
Bits/(Pixel*Frame)                       : 0.246
Stream size                              : 3.89 GiB (89%)
Encoding settings                        : cabac=1 / ref=9 / deblock=1:-3:-3 / analyse=0x3:0x133 / me=umh / subme=11 / psy=1 / fade_compensate=0.00 / psy_rd=1.00:0.10 / mixed_ref=1 / me_range=32 / chroma_me=1 / trellis=2 / 8x8dct=1 / cqm=0 / deadzone=21,11 / fast_pskip=0 / chroma_qp_offset=-3 / threads=18 / lookahead_threads=3 / sliced_threads=0 / nr=0 / decimate=0 / interlaced=0 / bluray_compat=0 / constrained_intra=0 / fgo=0 / bframes=10 / b_pyramid=2 / b_adapt=2 / b_bias=0 / direct=3 / weightb=1 / open_gop=0 / weightp=2 / keyint=250 / keyint_min=23 / scenecut=40 / intra_refresh=0 / rc=2pass / mbtree=0 / bitrate=5238 / ratetol=1.0 / qcomp=0.70 / qpmin=0 / qpmax=69 / qpstep=4 / cplxblur=20.0 / qblur=0.5 / ip_ratio=1.40 / pb_ratio=1.30 / aq=1 / aq-strength=0.90 / aq-sensitivity=10.00 / aq-ifactor=1.00 / aq-pfactor=1.00 / aq-bfactor=1.00 / aq2=0
Language                                 : Japanese
Default                                  : Yes
Forced                                   : No

Audio
ID                                       : 2
Format                                   : AC-3
Format/Info                              : Audio Coding 3
Commercial name                          : Dolby Digital
Codec ID                                 : A_AC3
Duration                                 : 1 h 46 min
Bit rate mode                            : Constant
Bit rate                                 : 640 kb/s
Channel(s)                               : 6 channels
Channel layout                           : L R C LFE Ls Rs
Sampling rate                            : 48.0 kHz
Frame rate                               : 31.250 FPS (1536 SPF)
Bit depth                                : 16 bits
Compression mode                         : Lossy
Stream size                              : 486 MiB (11%)
Language                                 : Japanese
Service kind                             : Complete Main
Default                                  : Yes
Forced                                   : No

Text #1
ID                                       : 3
Format                                   : UTF-8
Codec ID                                 : S_TEXT/UTF8
Codec ID/Info                            : UTF-8 Plain Text
Duration                                 : 1 h 45 min
Bit rate                                 : 32 b/s
Count of elements                        : 1103
Stream size                              : 24.9 KiB (0%)
Language                                 : English
Default                                  : Yes
Forced                                   : No

Text #2
ID                                       : 4
Format                                   : ASS
Codec ID                                 : S_TEXT/ASS
Codec ID/Info                            : Advanced Sub Station Alpha
Duration                                 : 1 h 46 min
Bit rate                                 : 90 b/s
Count of elements                        : 1441
Compression mode                         : Lossless
Stream size                              : 70.4 KiB (0%)
Language                                 : Chinese
Default                                  : No
Forced                                   : No

Menu
00:00:00.000                             : en:第 01 章
00:13:06.827                             : en:第 02 章
00:20:58.507                             : en:第 03 章
00:27:28.772                             : en:第 04 章
00:34:53.466                             : en:第 05 章
00:40:54.660                             : en:第 06 章
00:49:24.169                             : en:第 07 章
00:57:05.046                             : en:第 08 章
01:08:53.879                             : en:第 09 章
01:18:55.439                             : en:第 10 章
01:29:07.508                             : en:第 11 章
01:42:08.747                             : en:第 12 章



                                                                                                                                                                                                        
                                                                                                                                                                                                                                                                                                                                                                                                                                                                                                                                                                                                                                                                                                                                                                                                                                                      
c55abd6d7891a71bc8af82fd24afc207.torrent (44.18 KB, 下载次数: 0)

回复

使用道具 举报

小黑屋|西西论坛

本网站所有资源来自网络,如无意中侵犯了您的权益,请发邮件至 [email protected],立即清除相关链接

GMT+8, 2020-2-26 03:05 , Processed in 0.076284 second(s), 23 queries .

Powered by Discuz! X3.2

© 2001-2013 Comsenz Inc.

快速回复 返回顶部 返回列表