西西论坛

 找回密码
 立即注册
搜索

遗产 Heritage.2019.720p.BluRay.x264-YOL0W 3.28GB

[复制链接]
电影首发 发表于 2020-1-20 11:36:51 | 显示全部楼层 |阅读模式
帖子完整标题:遗产 Heritage.2019.720p.BluRay.x264-YOL0W 3.28GB




◎译  名 遗产
◎片  名 Heritage
◎年  代 2019
◎产  地 美国 / 德国
◎类  别 冒险
◎语  言 英语 / 德语
◎IMDb评分  6.0/10 from 525 users
◎bt电影天堂 www.btddy.com
◎片  长 78分钟
◎导  演 William von Tagen
◎编  剧 William von Tagen
◎主  演 贝蒂娜·齐默尔曼 Bettina Zimmermann
       Luisa Wietzorek
       彼得·洛迈尔 Peter Lohmeyer
       Travis Lincoln Cox
       Ralph Herforth
       卢卡斯·普瑞索 Lucas Prisor
       Drake Shannon
       Ronald Nitschke
       Raphael Schneider
       朱莉娅·埃费尔茨 Julia Effertz
       Maike von Bremen
       Sandra Maren Schneider


◎标  签 德国 | 2019 | 逃亡 | 迫害 | 美国 | 东德时期 | 2020

◎简  介  

  A former CIA agent's search for a lost colleague exposes a deadly conspiracy involving his own family and Soviet-era secrets in the mountains of East Germany.
Video
ID                                       : 1
Format                                   : AVC
Format/Info                              : Advanced Video Codec
Format settings                          : CABAC / 8 Ref Frames
Format settings, CABAC                   : Yes
Format settings, Reference frames        : 8 frames
Codec ID                                 : V_MPEG4/ISO/AVC
Duration                                 : 1 h 18 min
Bit rate                                 : 4 497 kb/s
Width                                    : 1 280 pixels
Height                                   : 696 pixels
Display aspect ratio                     : 1.85:1
Frame rate mode                          : Constant
Frame rate                               : 23.976 (24000/1001) FPS
Color space                              : YUV
Chroma subsampling                       : 4:2:0
Bit depth                                : 8 bits
Scan type                                : Progressive
Bits/(Pixel*Frame)                       : 0.211
Stream size                              : 2.46 GiB (75%)
Writing library                          : x264 core 159 r2991 1771b55
Encoding settings                        : cabac=1 / ref=8 / deblock=1:-3:-3 / analyse=0x3:0x133 / me=umh / subme=7 / psy=1 / psy_rd=1.00:0.00 / mixed_ref=1 / me_range=16 / chroma_me=1 / trellis=2 / 8x8dct=1 / cqm=0 / deadzone=21,11 / fast_pskip=1 / chroma_qp_offset=-2 / threads=16 / lookahead_threads=2 / sliced_threads=0 / nr=0 / decimate=1 / interlaced=0 / bluray_compat=0 / constrained_intra=0 / bframes=3 / b_pyramid=2 / b_adapt=2 / b_bias=0 / direct=3 / weightb=1 / open_gop=0 / weightp=2 / keyint=250 / keyint_min=23 / scenecut=40 / intra_refresh=0 / rc_lookahead=50 / rc=2pass / mbtree=1 / bitrate=4497 / ratetol=1.0 / qcomp=0.60 / qpmin=0 / qpmax=69 / qpstep=4 / cplxblur=20.0 / qblur=0.5 / ip_ratio=1.40 / aq=1:1.00
Language                                 : English
Default                                  : Yes
Forced                                   : No
Color range                              : Limited
Matrix coefficients                      : BT.709

Audio
ID                                       : 2
Format                                   : DTS
Format/Info                              : Digital Theater Systems
Codec ID                                 : A_DTS
Duration                                 : 1 h 18 min
Bit rate mode                            : Constant
Bit rate                                 : 1 509 kb/s
Channel(s)                               : 2 channels
Channel layout                           : L R
Sampling rate                            : 48.0 kHz
Frame rate                               : 93.750 FPS (512 SPF)
Bit depth                                : 24 bits
Compression mode                         : Lossy
Stream size                              : 844 MiB (25%)
Language                                 : English
Default                                  : Yes
Forced                                   : No

Text
ID                                       : 3
Format                                   : UTF-8
Codec ID                                 : S_TEXT/UTF8
Codec ID/Info                            : UTF-8 Plain Text
Duration                                 : 1 h 18 min
Bit rate                                 : 51 b/s
Count of elements                        : 737
Stream size                              : 29.5 KiB (0%)
Language                                 : English
Default                                  : No
Forced                                   : No

Menu
00:00:00.000                             : en:Chapter 01
00:07:34.621                             : en:Chapter 02
00:18:04.750                             : en:Chapter 03
00:29:32.771                             : en:Chapter 04
00:39:05.301                             : en:Chapter 05
00:49:28.424                             : en:Chapter 06
00:59:42.662                             : en:Chapter 07
01:09:28.456                             : en:Chapter 08
01:12:42.567                             : en:Chapter 09



                                                                                                                                                                                                        
                                                                                                                                                                                                                                                                                                                                                                                                                                                                                                                                                                                                                                                                                                                                                                                                                                                      
a378c307cc3c9c3bcf0ded89ce927e56.torrent (33.31 KB, 下载次数: 0)

回复

使用道具 举报

小黑屋|西西论坛

本网站所有资源来自网络,如无意中侵犯了您的权益,请发邮件至 [email protected],立即清除相关链接

GMT+8, 2020-2-28 23:00 , Processed in 0.066287 second(s), 23 queries .

Powered by Discuz! X3.2

© 2001-2013 Comsenz Inc.

快速回复 返回顶部 返回列表