西西论坛

 找回密码
 立即注册
搜索

人类纪/人類世:誰主地球(港) Anthropocene.the.Human.Epoch.2019.7...

[复制链接]
电影首发 发表于 2020-1-20 11:36:51 | 显示全部楼层 |阅读模式
帖子完整标题:人类纪/人類世:誰主地球(港) Anthropocene.the.Human.Epoch.2019.720p.BluRay.x264-GUACAMOLE 4.37GB




◎译  名 人类纪 / 人類世:誰主地球(港)
◎片  名 Anthropocene: The Human Epoch
◎年  代 2018
◎产  地 加拿大
◎类  别 纪录片
◎语  言 英语
◎上映日期 2018-09-13(多伦多国际电影节) / 2018-09-28(加拿大)
◎IMDb评分  7.2/10 from 732 users
◎bt电影天堂 www.btddy.com
◎片  长 87分钟(圣丹斯电影节)
◎导  演 珍妮弗·贝赫沃尔 Jennifer Baichwal

◎标  签 纪录片 | 加拿大 | 环保 | 2018 | 纪录片★ | 柏林电影节 | TIFF。 | 纪录片。

◎简  介  

  錦繡大地被過度開採變成荒蕪異域;雄壯大象只剩長牙堆成盜獵者的殘酷罪證。人自視為地球主宰,對氣候環境及生態系統構成不可逆轉的影響;科學權威歷十年研究後揚言:「人類世」在二十世紀中已取代「全新世」的地質時代。從俄羅斯到肯亞,攝製隊用四年時間探索這項重大改變,以環迴航拍俯視大地傷痕,深焦鏡頭凝望塗炭生靈。在奧斯卡最佳女配角艾莉西亞菲瑾德的旁白下,驚豔震撼影像揭示人類的瘋狂,正令地球走向滅亡。

◎获奖情况  

  第18届温哥华影评人协会奖(2018)
  最佳加拿大纪录片(提名)
Video
ID                                       : 1
Format                                   : AVC
Format/Info                              : Advanced Video Codec
Format settings                          : CABAC / 5 Ref Frames
Format settings, CABAC                   : Yes
Format settings, Reference frames        : 5 frames
Codec ID                                 : V_MPEG4/ISO/AVC
Duration                                 : 1 h 26 min
Bit rate                                 : 5 717 kb/s
Width                                    : 1 280 pixels
Height                                   : 720 pixels
Display aspect ratio                     : 16:9
Frame rate mode                          : Constant
Frame rate                               : 24.000 FPS
Color space                              : YUV
Chroma subsampling                       : 4:2:0
Bit depth                                : 8 bits
Scan type                                : Progressive
Bits/(Pixel*Frame)                       : 0.258
Stream size                              : 3.45 GiB (79%)
Writing library                          : x264 core 159 r2991 1771b55
Encoding settings                        : cabac=1 / ref=5 / deblock=1:0:0 / analyse=0x3:0x113 / me=umh / subme=8 / psy=1 / psy_rd=1.00:0.00 / mixed_ref=1 / me_range=16 / chroma_me=1 / trellis=2 / 8x8dct=1 / cqm=0 / deadzone=21,11 / fast_pskip=0 / chroma_qp_offset=-2 / threads=22 / lookahead_threads=3 / sliced_threads=0 / nr=0 / decimate=1 / interlaced=0 / bluray_compat=0 / constrained_intra=0 / bframes=3 / b_pyramid=2 / b_adapt=1 / b_bias=0 / direct=1 / weightb=1 / open_gop=0 / weightp=2 / keyint=250 / keyint_min=24 / scenecut=40 / intra_refresh=0 / rc_lookahead=50 / rc=2pass / mbtree=1 / bitrate=5717 / ratetol=1.0 / qcomp=0.60 / qpmin=0 / qpmax=69 / qpstep=4 / cplxblur=20.0 / qblur=0.5 / ip_ratio=1.40 / aq=1:1.00
Default                                  : Yes
Forced                                   : No

Audio
ID                                       : 2
Format                                   : DTS
Format/Info                              : Digital Theater Systems
Codec ID                                 : A_DTS
Duration                                 : 1 h 26 min
Bit rate mode                            : Constant
Bit rate                                 : 1 509 kb/s
Channel(s)                               : 6 channels
Channel layout                           : C L R Ls Rs LFE
Sampling rate                            : 48.0 kHz
Frame rate                               : 93.750 FPS (512 SPF)
Bit depth                                : 24 bits
Compression mode                         : Lossy
Stream size                              : 934 MiB (21%)
Language                                 : English
Default                                  : No
Forced                                   : No

Menu
00:00:00.000                             : en:00:00:00.000
00:07:27.083                             : en:00:07:27.083
00:14:21.917                             : en:00:14:21.917
00:21:51.292                             : en:00:21:51.292
00:28:54.083                             : en:00:28:54.083
00:36:13.292                             : en:00:36:13.292
00:44:52.125                             : en:00:44:52.125
00:50:20.792                             : en:00:50:20.792
00:57:26.583                             : en:00:57:26.583
01:06:07.042                             : en:01:06:07.042
01:14:33.833                             : en:01:14:33.833
01:21:40.500                             : en:01:21:40.500



                                                                                                                                                                                                        
                                                                                                                                                                                                                                                                                                                                                                                                                                                                                                                                                                                                                                                                                                                                                                                                                                                      
cfa934b2a9dcaa8f72a0f00878166c23.torrent (44.51 KB, 下载次数: 0)

回复

使用道具 举报

小黑屋|西西论坛

本网站所有资源来自网络,如无意中侵犯了您的权益,请发邮件至 [email protected],立即清除相关链接

GMT+8, 2020-2-29 00:46 , Processed in 0.070165 second(s), 23 queries .

Powered by Discuz! X3.2

© 2001-2013 Comsenz Inc.

快速回复 返回顶部 返回列表