西西论坛

 找回密码
 立即注册
搜索

[4K-原盘] 终结者:黑暗命运 Terminator.Dark.Fate.2019.2160p.BluRay.REMUX.HEVC.DTS-...

[复制链接]
电影首发 发表于 2020-1-20 10:36:26 | 显示全部楼层 |阅读模式
帖子完整标题:终结者:黑暗命运 Terminator.Dark.Fate.2019.2160p.BluRay.REMUX.HEVC.DTS-HD.MA.TrueHD.7.1.Atmos-FGT 58.33GB




◎译  名 终结者:黑暗命运 / Terminator 6 / 未来战士:黑暗命运(港) / 终结者2019 / 终结者6 / 终结者6:黑暗命运 / 终结者6:黑暗宿命 / 魔鬼终结者:黑暗宿命(台)
◎片  名 Terminator: Dark Fate
◎年  代 2019
◎产  地 美国 / 中国大陆
◎类  别 动作 / 科幻 / 冒险
◎语  言 英语
◎上映日期 2019-10-23(法国) / 2019-11-01(美国/中国大陆)
◎IMDb评分  6.4/10 from 60728 users
◎bt电影天堂 www.btddy.com
◎片  长 128分钟
◎导  演 蒂姆·米勒 Tim Miller
◎编  剧 詹姆斯·卡梅隆 James Cameron / 查尔斯·H·伊格里 Charles H. Eglee / 乔什·弗莱德曼 Josh Friedman / 大卫·S·高耶 David S. Goyer / 贾斯汀·罗德斯 Justin Rhodes / 比利·雷 Billy Ray / 盖尔·安妮·赫德 Gale Anne Hurd
◎主  演 麦肯兹·戴维斯 Mackenzie Davis
       娜塔利娅·雷耶斯 Natalia Reyes
       琳达·汉密尔顿 Linda Hamilton
       阿诺·施瓦辛格 Arnold Schwarzenegger
       加布里埃尔·鲁纳 Gabriel Luna
       迪耶戈·博内塔 Diego Boneta
       恩里克·阿尔切 Enrique Arce
       特里斯坦·乌罗阿 Tristán Ulloa
       艾丽西娅·博拉切罗 Alicia Borrachero
       布雷特·阿扎尔 Brett Azar
       史蒂芬·克里 Steven Cree
       罗谢尔·尼尔 Rochelle Neil
       弗雷泽·杰姆斯 Fraser James
       克劳迪娅·特鲁希略 Claudia Trujillo
       比约恩·弗赖贝格 Bj?rn Freiberg
       约翰·盖蒂尔 John Gettier
       彼得·奥蒙德 Peter Ormond
       Lorna Brown
       Peter Schueller


◎标  签 科幻 | 动作 | 美国 | 机器人 | 2019 | 情怀 | 冒险 | 剧情

◎简  介  

  《终结者2:审判日》发生的27年后,由于未来天网派来T-800成功杀死年幼的约翰,以致令未来产生变化,一个全新进化的液态金属终结者从未来派出,目的是追杀持有关键讯息的丹妮·拉莫斯、半生化人葛蕾丝和她的朋友。这使莎拉·康纳以及成功杀死约翰的T800终结者前来帮助她们一行人,以共同为了人类的未来而战。

◎获奖情况  

  第6届豆瓣电影年度榜单(2019)
  评分最高的科幻/动作片(提名)
Video #1
ID                                       : 1
Format                                   : HEVC
Format/Info                              : High Efficiency Video Coding
HDR format                               : SMPTE ST 2086, HDR10 compatible
Codec ID                                 : V_MPEGH/ISO/HEVC
Duration                                 : 2 h 8 min
Bit rate                                 : 48.7 Mb/s
Width                                    : 3 840 pixels
Height                                   : 2 160 pixels
Display aspect ratio                     : 16:9
Frame rate mode                          : Constant
Frame rate                               : 23.976 (24000/1001) FPS
Color space                              : YUV
Chroma subsampling                       : 4:2:0 (Type 2)
Bit depth                                : 10 bits
Bits/(Pixel*Frame)                       : 0.245
Stream size                              : 43.6 GiB (75%)
Title                                    : Terminator.Dark.Fate.2019.2160p.BluRay.REMUX.HEVC.DTS-HD.MA.TrueHD.7.1.Atmos-FGT
Language                                 : English
Default                                  : Yes
Forced                                   : No
Color range                              : Limited
Color primaries                          : BT.2020
Transfer characteristics                 : PQ
Matrix coefficients                      : BT.2020 non-constant
Mastering display color primaries        : Display P3
Mastering display luminance              : min: 0.0001 cd/m2, max: 1000 cd/m2
Maximum Content Light Level              : 1000 cd/m2
Maximum Frame-Average Light Level        : 446 cd/m2

Video #2
ID                                       : 2
Format                                   : HEVC
Format/Info                              : High Efficiency Video Coding
HDR format                               : SMPTE ST 2086, HDR10 compatible
Codec ID                                 : V_MPEGH/ISO/HEVC
Duration                                 : 2 h 8 min
Bit rate                                 : 5 129 kb/s
Width                                    : 1 920 pixels
Height                                   : 1 080 pixels
Display aspect ratio                     : 16:9
Frame rate mode                          : Constant
Frame rate                               : 23.976 (24000/1001) FPS
Color space                              : YUV
Chroma subsampling                       : 4:2:0 (Type 2)
Bit depth                                : 10 bits
Bits/(Pixel*Frame)                       : 0.103
Stream size                              : 4.59 GiB (8%)
Title                                    : Terminator.Dark.Fate.2019.2160p.BluRay.REMUX.HEVC.DTS-HD.MA.TrueHD.7.1.Atmos-FGT
Language                                 : English
Default                                  : No
Forced                                   : No
Color range                              : Limited
Color primaries                          : BT.2020
Transfer characteristics                 : PQ
Matrix coefficients                      : BT.2020 non-constant
Mastering display color primaries        : Display P3
Mastering display luminance              : min: 0.0001 cd/m2, max: 1000 cd/m2

Audio #1
ID                                       : 3
Format                                   : MLP FBA 16-ch
Format/Info                              : Meridian Lossless Packing FBA with 16-channel presentation
Commercial name                          : Dolby TrueHD with Dolby Atmos
Codec ID                                 : A_TRUEHD
Duration                                 : 2 h 8 min
Bit rate mode                            : Variable
Bit rate                                 : 4 634 kb/s
Maximum bit rate                         : 8 247 kb/s
Channel(s)                               : 8 channels
Channel layout                           : L R C LFE Ls Rs Lb Rb
Sampling rate                            : 48.0 kHz
Frame rate                               : 1 200.000 FPS (40 SPF)
Compression mode                         : Lossless
Delay relative to video                  : 9 ms
Stream size                              : 4.15 GiB (7%)
Title                                    : Terminator.Dark.Fate.2019.2160p.BluRay.REMUX.HEVC.DTS-HD.MA.TrueHD.7.1.Atmos-FGT
Language                                 : English
Default                                  : Yes
Forced                                   : No
Number of dynamic objects                : 11
Bed channel count                        : 1 channel
Bed channel configuration                : LFE

Audio #2
ID                                       : 4
Format                                   : DTS XLL
Format/Info                              : Digital Theater Systems
Commercial name                          : DTS-HD Master Audio
Codec ID                                 : A_DTS
Duration                                 : 2 h 8 min
Bit rate mode                            : Variable
Bit rate                                 : 4 061 kb/s
Channel(s)                               : 8 channels
Channel layout                           : C L R LFE Lb Rb Lss Rss
Sampling rate                            : 48.0 kHz
Frame rate                               : 93.750 FPS (512 SPF)
Bit depth                                : 24 bits
Compression mode                         : Lossless
Stream size                              : 3.63 GiB (6%)
Title                                    : Terminator.Dark.Fate.2019.2160p.BluRay.REMUX.HEVC.DTS-HD.MA.TrueHD.7.1.Atmos-FGT
Language                                 : English
Default                                  : No
Forced                                   : No

Audio #3
ID                                       : 5
Format                                   : AC-3
Format/Info                              : Audio Coding 3
Commercial name                          : Dolby Digital
Codec ID                                 : A_AC3
Duration                                 : 2 h 8 min
Bit rate mode                            : Constant
Bit rate                                 : 640 kb/s
Channel(s)                               : 6 channels
Channel layout                           : L R C LFE Ls Rs
Sampling rate                            : 48.0 kHz
Frame rate                               : 31.250 FPS (1536 SPF)
Bit depth                                : 16 bits
Compression mode                         : Lossy
Stream size                              : 586 MiB (1%)
Title                                    : Terminator.Dark.Fate.2019.2160p.BluRay.REMUX.HEVC.DTS-HD.MA.TrueHD.7.1.Atmos-FGT
Language                                 : English
Service kind                             : Complete Main
Default                                  : No
Forced                                   : No

Audio #4
ID                                       : 6
Format                                   : AC-3
Format/Info                              : Audio Coding 3
Commercial name                          : Dolby Digital
Codec ID                                 : A_AC3
Duration                                 : 2 h 8 min
Bit rate mode                            : Constant
Bit rate                                 : 640 kb/s
Channel(s)                               : 6 channels
Channel layout                           : L R C LFE Ls Rs
Sampling rate                            : 48.0 kHz
Frame rate                               : 31.250 FPS (1536 SPF)
Bit depth                                : 16 bits
Compression mode                         : Lossy
Stream size                              : 586 MiB (1%)
Title                                    : Terminator.Dark.Fate.2019.2160p.BluRay.REMUX.HEVC.DTS-HD.MA.TrueHD.7.1.Atmos-FGT
Language                                 : English
Service kind                             : Complete Main
Default                                  : No
Forced                                   : No

Audio #5
ID                                       : 7
Format                                   : AC-3
Format/Info                              : Audio Coding 3
Commercial name                          : Dolby Digital
Codec ID                                 : A_AC3
Duration                                 : 2 h 8 min
Bit rate mode                            : Constant
Bit rate                                 : 640 kb/s
Channel(s)                               : 6 channels
Channel layout                           : L R C LFE Ls Rs
Sampling rate                            : 48.0 kHz
Frame rate                               : 31.250 FPS (1536 SPF)
Bit depth                                : 16 bits
Compression mode                         : Lossy
Stream size                              : 586 MiB (1%)
Title                                    : Terminator.Dark.Fate.2019.2160p.BluRay.REMUX.HEVC.DTS-HD.MA.TrueHD.7.1.Atmos-FGT
Language                                 : Spanish
Service kind                             : Complete Main
Default                                  : No
Forced                                   : No

Audio #6
ID                                       : 8
Format                                   : AC-3
Format/Info                              : Audio Coding 3
Commercial name                          : Dolby Digital
Codec ID                                 : A_AC3
Duration                                 : 2 h 8 min
Bit rate mode                            : Constant
Bit rate                                 : 640 kb/s
Channel(s)                               : 6 channels
Channel layout                           : L R C LFE Ls Rs
Sampling rate                            : 48.0 kHz
Frame rate                               : 31.250 FPS (1536 SPF)
Bit depth                                : 16 bits
Compression mode                         : Lossy
Stream size                              : 586 MiB (1%)
Title                                    : Terminator.Dark.Fate.2019.2160p.BluRay.REMUX.HEVC.DTS-HD.MA.TrueHD.7.1.Atmos-FGT
Language                                 : French
Service kind                             : Complete Main
Default                                  : No
Forced                                   : No

Text #1
ID                                       : 9
Format                                   : UTF-8
Codec ID                                 : S_TEXT/UTF8
Codec ID/Info                            : UTF-8 Plain Text
Duration                                 : 1 h 57 min
Bit rate                                 : 31 b/s
Count of elements                        : 1078
Stream size                              : 27.2 KiB (0%)
Title                                    : English-SRT
Language                                 : English
Default                                  : Yes
Forced                                   : No

Text #2
ID                                       : 10
Format                                   : UTF-8
Codec ID                                 : S_TEXT/UTF8
Codec ID/Info                            : UTF-8 Plain Text
Duration                                 : 1 h 57 min
Bit rate                                 : 39 b/s
Count of elements                        : 1387
Stream size                              : 34.3 KiB (0%)
Title                                    : English-SDH-SRT
Language                                 : English
Default                                  : No
Forced                                   : No

Text #3
ID                                       : 11
Format                                   : PGS
Muxing mode                              : zlib
Codec ID                                 : S_HDMV/PGS
Codec ID/Info                            : Picture based subtitle format used on BDs/HD-DVDs
Duration                                 : 1 h 57 min
Bit rate                                 : 20.1 kb/s
Count of elements                        : 2100
Stream size                              : 16.9 MiB (0%)
Title                                    : English-PGS
Language                                 : English
Default                                  : No
Forced                                   : No

Text #4
ID                                       : 12
Format                                   : PGS
Muxing mode                              : zlib
Codec ID                                 : S_HDMV/PGS
Codec ID/Info                            : Picture based subtitle format used on BDs/HD-DVDs
Duration                                 : 1 h 57 min
Bit rate                                 : 27.3 kb/s
Count of elements                        : 2778
Stream size                              : 22.9 MiB (0%)
Title                                    : English-SDH-PGS
Language                                 : English
Default                                  : No
Forced                                   : No

Text #5
ID                                       : 13
Format                                   : PGS
Muxing mode                              : zlib
Codec ID                                 : S_HDMV/PGS
Codec ID/Info                            : Picture based subtitle format used on BDs/HD-DVDs
Duration                                 : 2 h 7 min
Bit rate                                 : 18.3 kb/s
Count of elements                        : 2150
Stream size                              : 16.7 MiB (0%)
Title                                    : Spanish-PGS
Language                                 : Spanish
Default                                  : No
Forced                                   : No

Text #6
ID                                       : 14
Format                                   : PGS
Muxing mode                              : zlib
Codec ID                                 : S_HDMV/PGS
Codec ID/Info                            : Picture based subtitle format used on BDs/HD-DVDs
Duration                                 : 2 h 5 min
Bit rate                                 : 316 b/s
Count of elements                        : 28
Stream size                              : 290 KiB (0%)
Title                                    : Spanish-FORCED-PGS
Language                                 : Spanish
Default                                  : No
Forced                                   : No

Text #7
ID                                       : 15
Format                                   : PGS
Muxing mode                              : zlib
Codec ID                                 : S_HDMV/PGS
Codec ID/Info                            : Picture based subtitle format used on BDs/HD-DVDs
Duration                                 : 2 h 7 min
Bit rate                                 : 20.9 kb/s
Count of elements                        : 2468
Stream size                              : 19.2 MiB (0%)
Title                                    : French-PGS
Language                                 : French
Default                                  : No
Forced                                   : No

Text #8
ID                                       : 16
Format                                   : PGS
Muxing mode                              : zlib
Codec ID                                 : S_HDMV/PGS
Codec ID/Info                            : Picture based subtitle format used on BDs/HD-DVDs
Duration                                 : 2 h 4 min
Bit rate                                 : 2 000 b/s
Count of elements                        : 264
Stream size                              : 1.78 MiB (0%)
Title                                    : French-FORCED-PGS
Language                                 : French
Default                                  : No
Forced                                   : No

Menu
00:00:00.000                             : en:Chapter 01
00:04:19.842                             : en:Chapter 02
00:07:48.926                             : en:Chapter 03
00:11:47.915                             : en:Chapter 04
00:16:56.306                             : en:Chapter 05
00:22:10.329                             : en:Chapter 06
00:29:00.613                             : en:Chapter 07
00:33:25.545                             : en:Chapter 08
00:41:35.493                             : en:Chapter 09
00:47:02.694                             : en:Chapter 10
00:53:08.935                             : en:Chapter 11
00:57:56.806                             : en:Chapter 12
01:05:02.690                             : en:Chapter 13
01:13:07.674                             : en:Chapter 14
01:20:46.049                             : en:Chapter 15
01:27:29.410                             : en:Chapter 16
01:32:48.563                             : en:Chapter 17
01:41:45.641                             : en:Chapter 18
01:49:35.318                             : en:Chapter 19
01:57:58.988                             : en:Chapter 20



                                                                                                                                                                                                        
                                                                                                                                                                                                                                                                                                                                                                                                                                                                                                                                                                                                                                                                                                                                                                                                                                                      
38639a076f23ff3dbbaac253d8b616fc.torrent (146.42 KB, 下载次数: 0)

回复

使用道具 举报

小黑屋|西西论坛

本网站所有资源来自网络,如无意中侵犯了您的权益,请发邮件至 [email protected],立即清除相关链接

GMT+8, 2020-2-28 18:35 , Processed in 0.070631 second(s), 23 queries .

Powered by Discuz! X3.2

© 2001-2013 Comsenz Inc.

快速回复 返回顶部 返回列表