西西论坛

 找回密码
 立即注册
搜索

哈丽特 Harriet.2019.720p.BluRay.x264-GECKOS 5.50GB

[复制链接]
电影首发 发表于 2020-1-17 11:19:11 | 显示全部楼层 |阅读模式
帖子完整标题:哈丽特 Harriet.2019.720p.BluRay.x264-GECKOS 5.50GB




◎译  名 哈丽特 / Freedom Fire / 自由之火
◎片  名 Harriet
◎年  代 2019
◎产  地 美国
◎类  别 剧情 / 传记 / 历史
◎语  言 英语
◎上映日期 2019-09-10(多伦多电影节) / 2019-11-01(美国)
◎IMDb评分  6.3/10 from 4791 users
◎bt电影天堂 www.btddy.com
◎片  长 125分钟
◎导  演 卡斯·莱蒙斯 Kasi Lemmons
◎编  剧 卡斯·莱蒙斯 Kasi Lemmons / 格雷戈里·艾伦·霍华德 Gregory Allen Howard
◎主  演 辛西娅·艾莉佛 Cynthia Erivo
       乔·阿尔文 Joe Alwyn
       加奈儿·梦奈 Janelle Monáe
       詹妮弗·内特尔斯 Jennifer Nettles
       蒂姆·金尼 Tim Guinee
       瓦妮莎·贝尔·卡洛威 Vanessa Bell Calloway
       克拉克·彼得斯 Clarke Peters
       小莱斯利·奥多姆 Leslie Odom Jr.
       沃迪·科蒂斯·霍尔 Vondie Curtis-Hall
       黛博拉·艾里德 Deborah Ayorinde
       托利·基特尔斯 Tory Kittles
       奥马尔·J·多尔西 Omar J. Dorsey
       米切尔·霍格 Mitchell Hoog
       施奎塔·詹姆斯 Shiquita James
       扎克瑞·莫莫 Zackary Momoh
       阿里娅·布鲁克斯 Aria Brooks
       迈克尔·图尔克 Michael Tourek
       约瑟夫·李·安德森 Joseph Lee Anderson
       皮特·布里斯 Pete Burris
       托马斯·基根 Thomas Keegan


◎标  签 传记 | 美国 | 女性 | 历史 | 2019 | 剧情 | 自由 | KasiLemmons

◎简  介  

  乔·阿尔文、小莱斯利·奥多姆将加盟传记影片[哈丽特],先前宣布加盟的卡司包括辛西娅·埃里沃、克拉克·彼得斯等。塞斯·曼恩(《国土安全》)执导。哈丽特·塔布曼生于1822年,原本是生活在马里兰州的黑奴,1849年她逃到北方,不久后加入到帮助奴隶逃亡的美国“地下铁路”中,成为最活跃的领袖之一,多次回到家乡带领其他奴隶逃往北方。南北战争爆发后,塔布曼积极参战,成为北军中为数不多的女性,战后她投身了争取妇女权益的运动。哈丽特也是首位登上美元的女性。影片将于下月在美国弗吉尼亚州开拍。

◎获奖情况  

  第92届奥斯卡金像奖(2020)
  最佳女主角(提名) 辛西娅·艾莉佛
  最佳原创歌曲(提名) 辛西娅·艾莉佛 / 乔舒亚·布赖恩·坎贝尔

  第77届金球奖(2020)
  电影类 剧情片最佳女主角(提名) 辛西娅·艾莉佛
  电影类 最佳原创歌曲(提名)

  第26届美国演员工会奖(2020)
  电影奖 最佳女主角(提名) 辛西娅·艾莉佛

  第25届美国评论家选择电影奖(2020)
  最佳女主角(提名) 辛西娅·艾莉佛
  最佳歌曲(提名)

  第24届金卫星奖(2020)
  电影部门 剧情片最佳女主角(提名) 辛西娅·艾莉佛
  电影部门 最佳原创配乐(提名)

  第23届好莱坞电影奖(2019)
  年度突破女演员 辛西娅·艾莉佛

  第40届伦敦影评人协会奖(2020)
  年度英国/爱尔兰女演员(提名) 辛西娅·艾莉佛
Video
ID                                       : 1
Format                                   : AVC
Format/Info                              : Advanced Video Codec
Format settings                          : CABAC / 5 Ref Frames
Format settings, CABAC                   : Yes
Format settings, Reference frames        : 5 frames
Codec ID                                 : V_MPEG4/ISO/AVC
Duration                                 : 2 h 5 min
Bit rate                                 : 4 743 kb/s
Width                                    : 1 280 pixels
Height                                   : 536 pixels
Display aspect ratio                     : 2.40:1
Frame rate mode                          : Constant
Frame rate                               : 23.976 (24000/1001) FPS
Color space                              : YUV
Chroma subsampling                       : 4:2:0
Bit depth                                : 8 bits
Scan type                                : Progressive
Bits/(Pixel*Frame)                       : 0.288
Stream size                              : 4.14 GiB (76%)
Writing library                          : x264 core 159 r2991 1771b55
Encoding settings                        : cabac=1 / ref=5 / deblock=1:-3:-3 / analyse=0x3:0x113 / me=umh / subme=8 / psy=1 / psy_rd=1.00:0.00 / mixed_ref=1 / me_range=16 / chroma_me=1 / trellis=1 / 8x8dct=1 / cqm=0 / deadzone=21,11 / fast_pskip=1 / chroma_qp_offset=-2 / threads=17 / lookahead_threads=2 / sliced_threads=0 / nr=0 / decimate=1 / interlaced=0 / bluray_compat=0 / constrained_intra=0 / bframes=3 / b_pyramid=2 / b_adapt=1 / b_bias=0 / direct=3 / weightb=1 / open_gop=0 / weightp=2 / keyint=250 / keyint_min=23 / scenecut=40 / intra_refresh=0 / rc_lookahead=50 / rc=2pass / mbtree=1 / bitrate=4743 / ratetol=1.0 / qcomp=0.60 / qpmin=0 / qpmax=69 / qpstep=4 / cplxblur=20.0 / qblur=0.5 / ip_ratio=1.40 / aq=1:1.00
Language                                 : English
Default                                  : Yes
Forced                                   : No

Audio
ID                                       : 2
Format                                   : DTS
Format/Info                              : Digital Theater Systems
Codec ID                                 : A_DTS
Duration                                 : 2 h 5 min
Bit rate mode                            : Constant
Bit rate                                 : 1 509 kb/s
Channel(s)                               : 6 channels
Channel layout                           : C L R Ls Rs LFE
Sampling rate                            : 48.0 kHz
Frame rate                               : 93.750 FPS (512 SPF)
Bit depth                                : 24 bits
Compression mode                         : Lossy
Stream size                              : 1.32 GiB (24%)
Language                                 : English
Default                                  : Yes
Forced                                   : No

Menu
00:00:00.000                             : en:00:00:00.000
00:07:19.522                             : en:00:07:19.522
00:15:38.229                             : en:00:15:38.229
00:21:44.845                             : en:00:21:44.845
00:26:02.269                             : en:00:26:02.269
00:32:32.534                             : en:00:32:32.534
00:42:15.116                             : en:00:42:15.116
00:47:42.693                             : en:00:47:42.693
00:53:37.673                             : en:00:53:37.673
01:00:14.903                             : en:01:00:14.903
01:05:27.841                             : en:01:05:27.841
01:12:32.974                             : en:01:12:32.974
01:20:03.173                             : en:01:20:03.173
01:24:47.457                             : en:01:24:47.457
01:29:36.705                             : en:01:29:36.705
01:34:13.314                             : en:01:34:13.314
01:42:48.162                             : en:01:42:48.162
01:47:58.389                             : en:01:47:58.389
01:54:02.836                             : en:01:54:02.836
01:58:13.586                             : en:01:58:13.586



                                                                                                                                                                                                        
                                                                                                                                                                                                                                                                                                                                                                                                                                                                                                                                                                                                                                                                                                                                                                                                                                                      

56f4a7cb90a3cdbed17b3a3ee3c155a3.torrent (28.32 KB, 下载次数: 0)

回复

使用道具 举报

小黑屋|西西论坛

本网站所有资源来自网络,如无意中侵犯了您的权益,请发邮件至 [email protected],立即清除相关链接

GMT+8, 2020-2-29 01:10 , Processed in 0.059494 second(s), 23 queries .

Powered by Discuz! X3.2

© 2001-2013 Comsenz Inc.

快速回复 返回顶部 返回列表