西西论坛

 找回密码
 立即注册
搜索

佐格 Zog.2018.720p.BluRay.x264-JustWatch 1.09GB

[复制链接]
电影首发 发表于 2020-1-17 11:19:11 | 显示全部楼层 |阅读模式
帖子完整标题:佐格 Zog.2018.720p.BluRay.x264-JustWatch 1.09GB




◎译  名 佐格
◎片  名 Zog
◎年  代 2018
◎产  地 英国
◎类  别 动画
◎语  言 英语
◎上映日期 2018-12-25(英国)
◎IMDb评分  7.5/10 from 426 users
◎bt电影天堂 www.btddy.com
◎片  长 25分钟
◎导  演 马克思·朗 Max Lang
◎编  剧 Julia Donaldson
◎主  演 基特·哈灵顿 Kit Harington
       休·斯金纳 Hugh Skinner
       崔茜·尤玛 Tracey Ullman
       帕齐·费伦 Patsy Ferran
       兰尼·亨利 Lenny Henry


◎标  签 BBC | 动画 | 动画片 | 动画短片 | UK | 短片 | 动漫 | 英国

◎简  介  

  “雪诺”基特·哈灵顿将为BBC儿童电影《Zog》配音,该片由《咕噜牛》的创作和制作团队打造,剧情十分萌:Zog是一位热情但经常惹事的龙,正在龙学院学习飞翔、怒吼、喷火和打骑士,为期4年,每年都有一个好心的小女孩替他包扎伤口。但是今年的这位会不会帮Zog完成他龙生中最复杂的挑战:抓到一位公主呢?
  哈灵顿将配音Gadabout爵士,休·斯金纳(《妈妈咪呀2》)已加盟配音Zog,兰尼·亨利任画外音,配音阵容还有帕齐·费伦、崔茜·尤玛等。该片将于今年圣诞在BBC One播出。

◎获奖情况  

  第47届动画安妮奖(2020)
  最佳制作(提名)

  第25届上海电视节白玉兰奖(2019)
  动画片 最佳动画片
Video
ID                                       : 1
Format                                   : AVC
Format/Info                              : Advanced Video Codec
Format settings                          : CABAC / 5 Ref Frames
Format settings, CABAC                   : Yes
Format settings, Reference frames        : 5 frames
Codec ID                                 : V_MPEG4/ISO/AVC
Duration                                 : 27 min 20 s
Bit rate                                 : 4 194 kb/s
Width                                    : 1 280 pixels
Height                                   : 720 pixels
Display aspect ratio                     : 16:9
Frame rate mode                          : Constant
Frame rate                               : 25.000 FPS
Color space                              : YUV
Chroma subsampling                       : 4:2:0
Bit depth                                : 8 bits
Scan type                                : Progressive
Bits/(Pixel*Frame)                       : 0.182
Stream size                              : 798 MiB (72%)
Writing library                          : x264 core 158 r2988 7817004
Encoding settings                        : cabac=1 / ref=5 / deblock=1:-2:-2 / analyse=0x3:0x113 / me=umh / subme=8 / psy=1 / psy_rd=1.00:0.00 / mixed_ref=1 / me_range=16 / chroma_me=1 / trellis=2 / 8x8dct=1 / cqm=0 / deadzone=21,11 / fast_pskip=1 / chroma_qp_offset=-2 / threads=12 / lookahead_threads=2 / sliced_threads=0 / nr=0 / decimate=1 / interlaced=0 / bluray_compat=0 / constrained_intra=0 / bframes=3 / b_pyramid=2 / b_adapt=2 / b_bias=0 / direct=3 / weightb=1 / open_gop=0 / weightp=2 / keyint=240 / keyint_min=24 / scenecut=40 / intra_refresh=0 / rc_lookahead=50 / rc=2pass / mbtree=1 / bitrate=4194 / ratetol=1.0 / qcomp=0.60 / qpmin=0 / qpmax=69 / qpstep=4 / cplxblur=20.0 / qblur=0.5 / ip_ratio=1.40 / aq=1:1.00
Language                                 : English
Default                                  : Yes
Forced                                   : No

Audio
ID                                       : 2
Format                                   : DTS
Format/Info                              : Digital Theater Systems
Codec ID                                 : A_DTS
Duration                                 : 27 min 20 s
Bit rate mode                            : Constant
Bit rate                                 : 1 509 kb/s
Channel(s)                               : 6 channels
Channel layout                           : C L R Ls Rs LFE
Sampling rate                            : 48.0 kHz
Frame rate                               : 93.750 FPS (512 SPF)
Bit depth                                : 24 bits
Compression mode                         : Lossy
Stream size                              : 295 MiB (26%)
Language                                 : English
Default                                  : Yes
Forced                                   : No

Menu
00:00:00.000                             : en:00:00:00.000
00:05:38.800                             : en:00:05:38.800
00:10:55.440                             : en:00:10:55.440
00:16:24.160                             : en:00:16:24.160
00:21:54.560                             : en:00:21:54.560



                                                                                                                                                                                                        
                                                                                                                                                                                                                                                                                                                                                                                                                                                                                                                                                                                                                                                                                                                                                                                                                                                      
5f73f0aaaea7ad3a228fb3ca1ca299a6.torrent (11.56 KB, 下载次数: 0)

回复

使用道具 举报

小黑屋|西西论坛

本网站所有资源来自网络,如无意中侵犯了您的权益,请发邮件至 [email protected],立即清除相关链接

GMT+8, 2020-2-28 22:49 , Processed in 0.069685 second(s), 23 queries .

Powered by Discuz! X3.2

© 2001-2013 Comsenz Inc.

快速回复 返回顶部 返回列表