西西论坛

 找回密码
 立即注册
搜索

终结者:黑暗命运 Terminator.Dark.Fate.2019.720p.BluRay.x264-SPARKS 5.48GB

[复制链接]
电影首发 发表于 2020-1-17 11:19:11 | 显示全部楼层 |阅读模式
帖子完整标题:终结者:黑暗命运 Terminator.Dark.Fate.2019.720p.BluRay.x264-SPARKS 5.48GB




◎译  名 终结者:黑暗命运 / Terminator 6 / 未来战士:黑暗命运(港) / 终结者2019 / 终结者6 / 终结者6:黑暗命运 / 终结者6:黑暗宿命 / 魔鬼终结者:黑暗宿命(台)
◎片  名 Terminator: Dark Fate
◎年  代 2019
◎产  地 美国 / 中国大陆
◎类  别 动作 / 科幻 / 冒险
◎语  言 英语
◎上映日期 2019-10-23(法国) / 2019-11-01(美国/中国大陆)
◎IMDb评分  6.5/10 from 53542 users
◎bt电影天堂 www.btddy.com
◎片  长 128分钟
◎导  演 蒂姆·米勒 Tim Miller
◎编  剧 詹姆斯·卡梅隆 James Cameron / 查尔斯·H·伊格里 Charles H. Eglee / 乔什·弗莱德曼 Josh Friedman / 大卫·S·高耶 David S. Goyer / 贾斯汀·罗德斯 Justin Rhodes / 比利·雷 Billy Ray / 盖尔·安妮·赫德 Gale Anne Hurd
◎主  演 麦肯兹·戴维斯 Mackenzie Davis
       娜塔利娅·雷耶斯 Natalia Reyes
       琳达·汉密尔顿 Linda Hamilton
       阿诺·施瓦辛格 Arnold Schwarzenegger
       加布里埃尔·鲁纳 Gabriel Luna
       迪耶戈·博内塔 Diego Boneta
       恩里克·阿尔切 Enrique Arce
       特里斯坦·乌罗阿 Tristán Ulloa
       艾丽西娅·博拉切罗 Alicia Borrachero
       布雷特·阿扎尔 Brett Azar
       史蒂芬·克里 Steven Cree
       罗谢尔·尼尔 Rochelle Neil
       弗雷泽·杰姆斯 Fraser James
       克劳迪娅·特鲁希略 Claudia Trujillo
       比约恩·弗赖贝格 Bj?rn Freiberg
       约翰·盖蒂尔 John Gettier
       彼得·奥蒙德 Peter Ormond
       Lorna Brown
       Peter Schueller


◎标  签 科幻 | 动作 | 美国 | 机器人 | 2019 | 情怀 | 冒险 | 剧情

◎简  介  

  《终结者2:审判日》发生的27年后,由于未来天网派来T-800成功杀死年幼的约翰,以致令未来产生变化,一个全新进化的液态金属终结者从未来派出,目的是追杀持有关键讯息的丹妮·拉莫斯、半生化人葛蕾丝和她的朋友。这使莎拉·康纳以及成功杀死约翰的T800终结者前来帮助她们一行人,以共同为了人类的未来而战。

◎获奖情况  

  第6届豆瓣电影年度榜单(2019)
  评分最高的科幻/动作片(提名)
Video
ID                                       : 1
Format                                   : AVC
Format/Info                              : Advanced Video Codec
Format settings                          : CABAC / 5 Ref Frames
Format settings, CABAC                   : Yes
Format settings, Reference frames        : 5 frames
Codec ID                                 : V_MPEG4/ISO/AVC
Duration                                 : 2 h 8 min
Bit rate                                 : 5 466 kb/s
Width                                    : 1 280 pixels
Height                                   : 536 pixels
Display aspect ratio                     : 2.40:1
Frame rate mode                          : Constant
Frame rate                               : 23.976 (24000/1001) FPS
Color space                              : YUV
Chroma subsampling                       : 4:2:0
Bit depth                                : 8 bits
Scan type                                : Progressive
Bits/(Pixel*Frame)                       : 0.332
Stream size                              : 4.89 GiB (89%)
Writing library                          : x264 core 159 r2991 1771b55
Encoding settings                        : cabac=1 / ref=5 / deblock=1:-3:-3 / analyse=0x3:0x113 / me=umh / subme=8 / psy=1 / psy_rd=1.00:0.00 / mixed_ref=1 / me_range=16 / chroma_me=1 / trellis=1 / 8x8dct=1 / cqm=0 / deadzone=21,11 / fast_pskip=1 / chroma_qp_offset=-2 / threads=17 / lookahead_threads=2 / sliced_threads=0 / nr=0 / decimate=1 / interlaced=0 / bluray_compat=0 / constrained_intra=0 / bframes=3 / b_pyramid=2 / b_adapt=1 / b_bias=0 / direct=3 / weightb=1 / open_gop=0 / weightp=2 / keyint=250 / keyint_min=23 / scenecut=40 / intra_refresh=0 / rc_lookahead=50 / rc=2pass / mbtree=1 / bitrate=5466 / ratetol=1.0 / qcomp=0.60 / qpmin=0 / qpmax=69 / qpstep=4 / cplxblur=20.0 / qblur=0.5 / ip_ratio=1.40 / aq=1:1.00
Language                                 : English
Default                                  : Yes
Forced                                   : No

Audio
ID                                       : 2
Format                                   : AC-3
Format/Info                              : Audio Coding 3
Commercial name                          : Dolby Digital
Codec ID                                 : A_AC3
Duration                                 : 2 h 8 min
Bit rate mode                            : Constant
Bit rate                                 : 640 kb/s
Channel(s)                               : 6 channels
Channel layout                           : L R C LFE Ls Rs
Sampling rate                            : 48.0 kHz
Frame rate                               : 31.250 FPS (1536 SPF)
Bit depth                                : 16 bits
Compression mode                         : Lossy
Stream size                              : 586 MiB (10%)
Language                                 : English
Service kind                             : Complete Main
Default                                  : Yes
Forced                                   : No

Menu
00:00:00.000                             : en:00:00:00.000
00:04:19.843                             : en:00:04:19.843
00:07:48.927                             : en:00:07:48.927
00:11:47.916                             : en:00:11:47.916
00:16:56.349                             : en:00:16:56.349
00:22:10.663                             : en:00:22:10.663
00:29:00.614                             : en:00:29:00.614
00:33:25.754                             : en:00:33:25.754
00:41:35.493                             : en:00:41:35.493
00:47:02.695                             : en:00:47:02.695
00:53:08.936                             : en:00:53:08.936
00:57:56.807                             : en:00:57:56.807
01:05:02.690                             : en:01:05:02.690
01:13:07.967                             : en:01:13:07.967
01:20:45.591                             : en:01:20:45.591
01:27:29.744                             : en:01:27:29.744
01:32:48.688                             : en:01:32:48.688
01:41:45.850                             : en:01:41:45.850
01:49:35.319                             : en:01:49:35.319
01:57:58.613                             : en:01:57:58.613



                                                                                                                                                                                                        
                                                                                                                                                                                                                                                                                                                                                                                                                                                                                                                                                                                                                                                                                                                                                                                                                                                      
34edc6a0a6c6d6e185f1f73a627831a0.torrent (28.28 KB, 下载次数: 0)

回复

使用道具 举报

小黑屋|西西论坛

本网站所有资源来自网络,如无意中侵犯了您的权益,请发邮件至 [email protected],立即清除相关链接

GMT+8, 2020-2-29 00:13 , Processed in 0.057447 second(s), 23 queries .

Powered by Discuz! X3.2

© 2001-2013 Comsenz Inc.

快速回复 返回顶部 返回列表