西西论坛

 找回密码
 立即注册
搜索

8号警报/8级警戒 Code.8.2019.720p.BluRay.x264-PSYCHD 4.37GB

[复制链接]
电影首发 发表于 2020-1-17 11:19:11 | 显示全部楼层 |阅读模式
帖子完整标题:8号警报/8级警戒 Code.8.2019.720p.BluRay.x264-PSYCHD 4.37GB




◎译  名 8号警报 / 8级警戒(台) / 代号8 / 八方急援
◎片  名 Code 8
◎年  代 2019
◎产  地 加拿大
◎类  别 剧情 / 科幻 / 犯罪
◎语  言 英语
◎上映日期 2019-10-03(西班牙锡切斯电影节) / 2019-12-13(加拿大/美国)
◎bt电影天堂 www.btddy.com
◎片  长 98分钟
◎导  演 杰夫·陈 Jeff Chan
◎编  剧 克里斯·帕尔 Chris Pare / 杰夫·陈 Jeff Chan
◎主  演 斯蒂芬·阿梅尔 Stephen Amell
       罗比·阿美尔 Robbie Amell
       姜成镐 Sung Kang
       蕾斯拉·德·奥利维拉 Laysla De Oliveira
       格雷格·布瑞克 Greg Bryk
       卡瑞·玛切特 Kari Matchett
       彼德·奥德博拉治 Peter Outerbridge
       肖恩·本森 Shaun Benson
       阿隆·艾布拉姆斯 Aaron Abrams
       格伦达·布拉甘扎 Glenda Braganza
       西蒙·诺斯伍德 Simon Northwood
       周豪 Ho Chow
       凯拉·凯恩 Kyla Kane
       Alex Mallari Jr.
       JaNae Armogan
       Jeff Sinasac
       Joe Vercillo


◎标  签 科幻 | 2019 | 美国 | 电影 | 超能力 | 加拿大 | 剧情 | 种族歧视

◎简  介  

  曾经的“未来之城”林肯城,4%人口具有超能力,其中大多数却在自动化潮流中陷入贫困与歧视的泥沼,日渐成为社会负担甚至隐患,康纳·里德(罗比·艾梅尔 饰)便是这样一名青年临时工——面对母亲的天价医疗费,债台高筑的他不得不铤而走险,直面铁面无情的机械军警卫士。
  影片由杰夫·陈(Jeff Chan)创作执导、克里斯·帕雷(Chris Paré)撰写剧本,改编自两人2016年同名科幻短片,并与主演艾梅尔兄弟等人执行制片。
Video
ID                                       : 1
Format                                   : AVC
Format/Info                              : Advanced Video Codec
Format settings                          : CABAC / 5 Ref Frames
Format settings, CABAC                   : Yes
Format settings, Reference frames        : 5 frames
Codec ID                                 : V_MPEG4/ISO/AVC
Duration                                 : 1 h 38 min
Bit rate                                 : 4 852 kb/s
Width                                    : 1 280 pixels
Height                                   : 536 pixels
Display aspect ratio                     : 2.40:1
Frame rate mode                          : Constant
Frame rate                               : 23.976 (24000/1001) FPS
Color space                              : YUV
Chroma subsampling                       : 4:2:0
Bit depth                                : 8 bits
Scan type                                : Progressive
Bits/(Pixel*Frame)                       : 0.295
Stream size                              : 3.25 GiB (74%)
Writing library                          : x264 core 159 r2991 1771b55
Encoding settings                        : cabac=1 / ref=5 / deblock=1:-3:-3 / analyse=0x3:0x113 / me=umh / subme=8 / psy=1 / psy_rd=1.00:0.00 / mixed_ref=1 / me_range=24 / chroma_me=1 / trellis=2 / 8x8dct=1 / cqm=0 / deadzone=21,11 / fast_pskip=1 / chroma_qp_offset=-2 / threads=17 / lookahead_threads=2 / sliced_threads=0 / nr=0 / decimate=1 / interlaced=0 / bluray_compat=0 / constrained_intra=0 / bframes=3 / b_pyramid=2 / b_adapt=2 / b_bias=0 / direct=3 / weightb=1 / open_gop=0 / weightp=2 / keyint=240 / keyint_min=24 / scenecut=40 / intra_refresh=0 / rc_lookahead=50 / rc=2pass / mbtree=1 / bitrate=4852 / ratetol=1.0 / qcomp=0.60 / qpmin=0 / qpmax=69 / qpstep=4 / cplxblur=20.0 / qblur=0.5 / ip_ratio=1.40 / aq=3:0.80
Default                                  : Yes
Forced                                   : No
Statistics Tags Issue                    : no_variable_data 1970-01-01 00:00:00 / no_variable_data 2010-02-22 21:41:29
FromStats_BitRate                        : 4852008
FromStats_Duration                       : 01:38:19.185000000
FromStats_FrameCount                     : 141439
FromStats_StreamSize                     : 3577861614

Audio
ID                                       : 2
Format                                   : DTS
Format/Info                              : Digital Theater Systems
Codec ID                                 : A_DTS
Duration                                 : 1 h 38 min
Bit rate mode                            : Constant
Bit rate                                 : 1 509 kb/s
Channel(s)                               : 6 channels
Channel layout                           : C L R Ls Rs LFE
Sampling rate                            : 48.0 kHz
Frame rate                               : 93.750 FPS (512 SPF)
Bit depth                                : 24 bits
Compression mode                         : Lossy
Stream size                              : 1.04 GiB (24%)
Language                                 : English
Default                                  : Yes
Forced                                   : No
Statistics Tags Issue                    : no_variable_data 1970-01-01 00:00:00 / no_variable_data 2010-02-22 21:41:29
FromStats_BitRate                        : 1508999
FromStats_Duration                       : 01:38:19.190000000
FromStats_FrameCount                     : 553049
FromStats_StreamSize                     : 1112734588

Text #1
ID                                       : 3
Format                                   : UTF-8
Codec ID                                 : S_TEXT/UTF8
Codec ID/Info                            : UTF-8 Plain Text
Title                                    : Forced
Language                                 : English
Default                                  : Yes
Forced                                   : Yes
Statistics Tags Issue                    : no_variable_data 1970-01-01 00:00:00 / no_variable_data 2010-02-22 21:41:29
FromStats_BitRate                        : 0
FromStats_Duration                       : 00:13:55.376000000
FromStats_FrameCount                     : 2
FromStats_StreamSize                     : 22

Text #2
ID                                       : 4
Format                                   : UTF-8
Codec ID                                 : S_TEXT/UTF8
Codec ID/Info                            : UTF-8 Plain Text
Language                                 : English
Default                                  : No
Forced                                   : No
Statistics Tags Issue                    : no_variable_data 1970-01-01 00:00:00 / no_variable_data 2010-02-22 21:41:29
FromStats_BitRate                        : 51
FromStats_Duration                       : 01:30:26.004000000
FromStats_FrameCount                     : 1233
FromStats_StreamSize                     : 34608

Text #3
ID                                       : 5
Format                                   : UTF-8
Codec ID                                 : S_TEXT/UTF8
Codec ID/Info                            : UTF-8 Plain Text
Title                                    : SDH
Language                                 : English
Default                                  : No
Forced                                   : No
Statistics Tags Issue                    : no_variable_data 1970-01-01 00:00:00 / no_variable_data 2010-02-22 21:41:29
FromStats_BitRate                        : 60
FromStats_Duration                       : 01:30:33.178000000
FromStats_FrameCount                     : 1459
FromStats_StreamSize                     : 41390

Menu
00:00:00.000                             : en:Chapter 01
00:05:02.802                             : en:Chapter 02
00:11:58.009                             : en:Chapter 03
00:17:23.709                             : en:Chapter 04
00:22:29.848                             : en:Chapter 05
00:30:57.731                             : en:Chapter 06
00:36:16.674                             : en:Chapter 07
00:41:57.223                             : en:Chapter 08
00:47:32.141                             : en:Chapter 09
00:55:07.971                             : en:Chapter 10
00:59:33.570                             : en:Chapter 11
01:05:11.324                             : en:Chapter 12
01:10:35.731                             : en:Chapter 13
01:16:44.600                             : en:Chapter 14
01:23:07.399                             : en:Chapter 15
01:28:32.641                             : en:Chapter 16



                                                                                                                                                                                                        
                                                                                                                                                                                                                                                                                                                                                                                                                                                                                                                                                                                                                                                                                                                                                                                                                                                      
cae5d1332ce0bfde66d5aebf495372a2.torrent (44.56 KB, 下载次数: 0)

回复

使用道具 举报

小黑屋|西西论坛

本网站所有资源来自网络,如无意中侵犯了您的权益,请发邮件至 [email protected],立即清除相关链接

GMT+8, 2020-2-26 03:59 , Processed in 0.056183 second(s), 23 queries .

Powered by Discuz! X3.2

© 2001-2013 Comsenz Inc.

快速回复 返回顶部 返回列表