西西论坛

 找回密码
 立即注册
搜索

[4K-原盘] 龟女士的奥德赛 Turtle.Odyssey.2019.DOCU.2160p.BluRay.REMUX.HEVC.DTS-X....

[复制链接]
电影首发 发表于 2020-1-8 18:27:21 | 显示全部楼层 |阅读模式
帖子完整标题:龟女士的奥德赛 Turtle.Odyssey.2019.DOCU.2160p.BluRay.REMUX.HEVC.DTS-X.7.1-FGT 17.88GB




◎译  名 龟女士的奥德赛
◎片  名 Turtle Odyssey
◎年  代 2018
◎产  地 澳大利亚
◎类  别 纪录片
◎语  言 英语
◎上映日期 2018-06-30(澳大利亚)
◎IMDb评分  7.2/10 from 91 users
◎片  长 45分钟
◎导  演 Caspar Mazzotti / Paul Phelan
◎编  剧 Amelia McCarten / Paul Phelan
◎主  演 罗素·克劳 Russell Crowe


◎标  签 紀錄片 | 科教片 | 电影 | 已经存档 | P | IMAX | 4K | 22.49BW

◎简  介  

  《龟女士的奥德赛》讲述了一只名叫本吉(Bunji)澳大利亚绿海龟的独特的一生,以及她在广阔海洋中的奇妙旅程。她在数千英里的旅程中,遇到的许许多多令人难以置信的生物。
Video
ID                                       : 1
Format                                   : HEVC
Format/Info                              : High Efficiency Video Coding
HDR format                               : SMPTE ST 2086, HDR10 compatible
Codec ID                                 : V_MPEGH/ISO/HEVC
Duration                                 : 41 min 9 s
Bit rate                                 : 47.0 Mb/s
Width                                    : 3 840 pixels
Height                                   : 2 160 pixels
Display aspect ratio                     : 16:9
Frame rate mode                          : Constant
Frame rate                               : 23.976 (24000/1001) FPS
Color space                              : YUV
Chroma subsampling                       : 4:2:0 (Type 2)
Bit depth                                : 10 bits
Bits/(Pixel*Frame)                       : 0.236
Stream size                              : 13.5 GiB (76%)
Title                                    : Turtle.Odyssey.2018.2160p.BluRay.REMUX.HEVC.DTS-X.7.1-FGT
Language                                 : English
Default                                  : No
Forced                                   : No
Color range                              : Limited
Color primaries                          : BT.2020
Transfer characteristics                 : PQ
Matrix coefficients                      : BT.2020 non-constant
Mastering display color primaries        : BT.2020
Mastering display luminance              : min: 0.0010 cd/m2, max: 1000 cd/m2
Maximum Content Light Level              : 996 cd/m2
Maximum Frame-Average Light Level        : 401 cd/m2

Audio #1
ID                                       : 2
Format                                   : DTS XLL
Format/Info                              : Digital Theater Systems
Commercial name                          : DTS-HD Master Audio
Codec ID                                 : A_DTS
Duration                                 : 41 min 9 s
Bit rate mode                            : Variable
Bit rate                                 : 7 615 kb/s
Channel(s)                               : 8 channels
Channel layout                           : C L R LFE Lb Rb Lss Rss
Sampling rate                            : 48.0 kHz
Frame rate                               : 93.750 FPS (512 SPF)
Bit depth                                : 24 bits
Compression mode                         : Lossless
Stream size                              : 2.19 GiB (12%)
Title                                    : Turtle.Odyssey.2018.2160p.BluRay.REMUX.HEVC.DTS-X.7.1-FGT
Language                                 : English
Default                                  : Yes
Forced                                   : No

Audio #2
ID                                       : 3
Format                                   : DTS XLL
Format/Info                              : Digital Theater Systems
Commercial name                          : DTS-HD Master Audio
Codec ID                                 : A_DTS
Duration                                 : 41 min 8 s
Bit rate mode                            : Variable
Bit rate                                 : 3 795 kb/s
Channel(s)                               : 6 channels
Channel layout                           : C L R Ls Rs LFE
Sampling rate                            : 48.0 kHz
Frame rate                               : 93.750 FPS (512 SPF)
Bit depth                                : 24 bits
Compression mode                         : Lossless
Stream size                              : 1.09 GiB (6%)
Title                                    : Turtle.Odyssey.2018.2160p.BluRay.REMUX.HEVC.DTS-X.7.1-FGT
Language                                 : French
Default                                  : No
Forced                                   : No

Audio #3
ID                                       : 4
Format                                   : DTS XLL
Format/Info                              : Digital Theater Systems
Commercial name                          : DTS-HD Master Audio
Codec ID                                 : A_DTS
Duration                                 : 41 min 8 s
Bit rate mode                            : Variable
Bit rate                                 : 3 746 kb/s
Channel(s)                               : 6 channels
Channel layout                           : C L R Ls Rs LFE
Sampling rate                            : 48.0 kHz
Frame rate                               : 93.750 FPS (512 SPF)
Bit depth                                : 24 bits
Compression mode                         : Lossless
Stream size                              : 1.08 GiB (6%)
Title                                    : Turtle.Odyssey.2018.2160p.BluRay.REMUX.HEVC.DTS-X.7.1-FGT
Language                                 : Spanish
Default                                  : No
Forced                                   : No

Text #1
ID                                       : 5
Format                                   : UTF-8
Codec ID                                 : S_TEXT/UTF8
Codec ID/Info                            : UTF-8 Plain Text
Duration                                 : 39 min 26 s
Bit rate                                 : 46 b/s
Count of elements                        : 395
Stream size                              : 13.5 KiB (0%)
Title                                    : English-SRT
Language                                 : English
Default                                  : Yes
Forced                                   : No

Text #2
ID                                       : 6
Format                                   : PGS
Muxing mode                              : zlib
Codec ID                                 : S_HDMV/PGS
Codec ID/Info                            : Picture based subtitle format used on BDs/HD-DVDs
Duration                                 : 39 min 26 s
Bit rate                                 : 32.0 kb/s
Count of elements                        : 790
Stream size                              : 9.02 MiB (0%)
Title                                    : English-PGS
Language                                 : English
Default                                  : No
Forced                                   : No

Menu
00:00:00.000                             : en:Chapter 01
00:05:04.512                             : en:Chapter 02
00:09:17.056                             : en:Chapter 03
00:13:04.867                             : en:Chapter 04
00:17:01.729                             : en:Chapter 05
00:20:52.334                             : en:Chapter 06
00:22:18.170                             : en:Chapter 07
00:25:10.675                             : en:Chapter 08
00:28:20.615                             : en:Chapter 09
00:33:08.444                             : en:Chapter 10
00:35:26.791                             : en:Chapter 11
00:39:33.454                             : en:Chapter 12



                                                                                                                                                                                                        
                                                                                                                                                                                                                                                                                                                                                                                                                                                                                                                                                                                                                                                                                                                                                                                                                                                      
35caf1b9aed705ecddd8749c5a4d3a5b.torrent (89.95 KB, 下载次数: 0)

回复

使用道具 举报

小黑屋|西西论坛

本网站所有资源来自网络,如无意中侵犯了您的权益,请发邮件至 [email protected],立即清除相关链接

GMT+8, 2020-2-28 17:13 , Processed in 0.056645 second(s), 23 queries .

Powered by Discuz! X3.2

© 2001-2013 Comsenz Inc.

快速回复 返回顶部 返回列表