西西论坛

 找回密码
 立即注册
搜索

[BD-4K] 小姐与流浪汉/小姐与流氓 Lady.and.the.Tramp.2019.RERip.2160p.DSNP.W...

[复制链接]
电影首发 发表于 2020-1-8 18:22:13 | 显示全部楼层 |阅读模式
帖子完整标题:小姐与流浪汉/小姐与流氓 Lady.and.the.Tramp.2019.RERip.2160p.DSNP.WEBRip.x265.10bit.HDR.DD5.1.Atmos-TrollUHD 15.44GB




◎译  名 小姐与流浪汉 / 小姐与流氓
◎片  名 Lady and the Tramp
◎年  代 2019
◎产  地 美国
◎类  别 剧情 / 喜剧 / 爱情 / 动画 / 家庭 / 冒险
◎语  言 英语
◎上映日期 2019-11-12(美国)
◎IMDb评分  6.3/10 from 7185 users
◎片  长 103分钟
◎导  演 查理·宾 Charlie Bean
◎编  剧 安德鲁·布加尔斯基 Andrew Bujalski
◎主  演 贾斯汀·塞洛克斯 Justin Theroux
       泰莎·汤普森 Tessa Thompson
       加奈儿·梦奈 Janelle Monáe
       黄凯旋 Benedict Wong
       阿什利·詹森 Ashley Jensen
       山姆·艾里奥特 Sam Elliott
       托马斯·曼 Thomas Mann
       科雷西·克莱门斯 Kiersey Clemons
       阿图罗·卡斯特罗 Arturo Castro
       伊薇特·尼科尔·布朗 Yvette Nicole Brown
       迈克尔·图尔克 Michael Tourek
       马特·默丘里奥 Matt Mercurio
       阿德里安·马丁斯 Adrian Martinez
       罗伯特·沃克·布兰乔德 Robert Walker Branchaud
       柯蒂斯·莱昂斯 Curtis Lyons
       Regina Ting Chen
       Jennifer Christa Palmer
       Ardian Martinez


◎标  签 迪士尼 | 美国 | 狗狗 | 动画 | 喜剧 | Disney | 2019 | 家庭

◎简  介  

  迪士尼欲打造真人CG版[小姐与流浪汉],[乐高忍者大电影]导演查理·宾将执导该片,安德鲁·布加尔斯基操刀剧本。原版1955年动画故事讲述宠物狗”淑女“离家出走后遇到好心流浪狗查普,他们很快成为朋友,在种种磨难后,他们也擦出爱的火花。目前影片卡司阵容尚未公布。
Video
ID                                       : 1
Format                                   : HEVC
Format/Info                              : High Efficiency Video Coding
Codec ID                                 : V_MPEGH/ISO/HEVC
Duration                                 : 1 h 42 min
Bit rate                                 : 20.7 Mb/s
Width                                    : 3 840 pixels
Height                                   : 1 920 pixels
Display aspect ratio                     : 2.000
Frame rate mode                          : Constant
Frame rate                               : 23.976 (24000/1001) FPS
Color space                              : YUV
Chroma subsampling                       : 4:2:0
Bit depth                                : 10 bits
Bits/(Pixel*Frame)                       : 0.117
Stream size                              : 14.9 GiB (96%)
Writing library                          : x265 3.27fc1f6ef2b96:[Windows][MSVC 1923][64 bit] 10bit

Default                                  : Yes
Forced                                   : No
Color range                              : Limited
Color primaries                          : BT.2020
Transfer characteristics                 : PQ
Matrix coefficients                      : BT.2020 non-constant

Audio
ID                                       : 2
Format                                   : E-AC-3 JOC
Format/Info                              : Enhanced AC-3 with Joint Object Coding
Commercial name                          : Dolby Digital Plus with Dolby Atmos
Codec ID                                 : A_EAC3
Duration                                 : 1 h 42 min
Bit rate mode                            : Constant
Bit rate                                 : 768 kb/s
Channel(s)                               : 6 channels
Channel layout                           : L R C LFE Ls Rs
Sampling rate                            : 48.0 kHz
Frame rate                               : 31.250 FPS (1536 SPF)
Compression mode                         : Lossy
Stream size                              : 565 MiB (4%)
Language                                 : English
Service kind                             : Complete Main
Default                                  : Yes
Forced                                   : No
Complexity index                         : 16
Number of dynamic objects                : 15
Bed channel count                        : 1 channel
Bed channel configuration                : LFE

Text #1
ID                                       : 3
Format                                   : UTF-8
Codec ID                                 : S_TEXT/UTF8
Codec ID/Info                            : UTF-8 Plain Text
Duration                                 : 1 h 40 min
Bit rate                                 : 72 b/s
Count of elements                        : 1803
Stream size                              : 53.6 KiB (0%)
Title                                    : English
Language                                 : English
Default                                  : No
Forced                                   : No

Text #2
ID                                       : 4
Format                                   : UTF-8
Codec ID                                 : S_TEXT/UTF8
Codec ID/Info                            : UTF-8 Plain Text
Duration                                 : 1 h 41 min
Bit rate                                 : 52 b/s
Count of elements                        : 1180
Stream size                              : 39.1 KiB (0%)
Title                                    : Dutch
Language                                 : Dutch
Default                                  : No
Forced                                   : No

Text #3
ID                                       : 5
Format                                   : UTF-8
Codec ID                                 : S_TEXT/UTF8
Codec ID/Info                            : UTF-8 Plain Text
Duration                                 : 1 h 41 min
Bit rate                                 : 48 b/s
Count of elements                        : 1461
Stream size                              : 36.1 KiB (0%)
Title                                    : French
Language                                 : French
Default                                  : No
Forced                                   : No

Text #4
ID                                       : 6
Format                                   : UTF-8
Codec ID                                 : S_TEXT/UTF8
Codec ID/Info                            : UTF-8 Plain Text
Duration                                 : 1 h 41 min
Bit rate                                 : 54 b/s
Count of elements                        : 1424
Stream size                              : 40.3 KiB (0%)
Title                                    : Spanish
Language                                 : Spanish
Default                                  : No
Forced                                   : No



                                                                                                                                                                                                        
                                                                                                                                                                                                                                                                                                                                                                                                                                                                                                                                                                                                                                                                                                                                                                                                                                                      
e970f726e5a868ff47eae6afd8e41f47.torrent (77.8 KB, 下载次数: 0)

回复

使用道具 举报

小黑屋|西西论坛

本网站所有资源来自网络,如无意中侵犯了您的权益,请发邮件至 [email protected],立即清除相关链接

GMT+8, 2020-2-28 17:31 , Processed in 0.059505 second(s), 23 queries .

Powered by Discuz! X3.2

© 2001-2013 Comsenz Inc.

快速回复 返回顶部 返回列表