西西论坛

 找回密码
 立即注册
搜索

疾速杀机 Acceleration.2019.720p.BluRay.x264-GUACAMOLE 4.37GB

[复制链接]
电影首发 发表于 2020-1-6 13:02:20 | 显示全部楼层 |阅读模式
帖子完整标题:疾速杀机 Acceleration.2019.720p.BluRay.x264-GUACAMOLE 4.37GB




◎译  名 疾速杀机 / The Driver
◎片  名 Acceleration
◎年  代 2019
◎产  地 美国
◎类  别 动作 / 犯罪
◎语  言 英语
◎上映日期 2019-11-08(美国)
◎片  长 85分钟
◎导  演 Michael Merino / Daniel Zirilli
◎编  剧 Michael Merino / Daniel Zirilli / 娜塔莉·伯恩 Natalie Burn
◎主  演 肖恩·派特里克·弗兰纳里 Sean Patrick Flanery
       杜夫·龙格尔 Dolph Lundgren
       查克·林德尔 Chuck Liddell
       娜塔莉·伯恩 Natalie Burn
       奎顿·杰克逊 Quinton 'Rampage' Jackson
       丹尼·特雷霍 Danny Trejo


◎简  介  

  暂无相关剧情介绍
Video
ID                                       : 1
Format                                   : AVC
Format/Info                              : Advanced Video Codec
Format settings                          : CABAC / 5 Ref Frames
Format settings, CABAC                   : Yes
Format settings, Reference frames        : 5 frames
Codec ID                                 : V_MPEG4/ISO/AVC
Duration                                 : 1 h 25 min
Bit rate                                 : 5 827 kb/s
Width                                    : 1 280 pixels
Height                                   : 720 pixels
Display aspect ratio                     : 16:9
Frame rate mode                          : Constant
Frame rate                               : 23.976 (24000/1001) FPS
Color space                              : YUV
Chroma subsampling                       : 4:2:0
Bit depth                                : 8 bits
Scan type                                : Progressive
Bits/(Pixel*Frame)                       : 0.264
Stream size                              : 3.47 GiB (79%)
Writing library                          : x264 core 159 r2991 1771b55
Encoding settings                        : cabac=1 / ref=5 / deblock=1:0:0 / analyse=0x3:0x113 / me=umh / subme=8 / psy=1 / psy_rd=1.00:0.00 / mixed_ref=1 / me_range=16 / chroma_me=1 / trellis=2 / 8x8dct=1 / cqm=0 / deadzone=21,11 / fast_pskip=0 / chroma_qp_offset=-2 / threads=22 / lookahead_threads=3 / sliced_threads=0 / nr=0 / decimate=1 / interlaced=0 / bluray_compat=0 / constrained_intra=0 / bframes=3 / b_pyramid=2 / b_adapt=1 / b_bias=0 / direct=1 / weightb=1 / open_gop=0 / weightp=2 / keyint=250 / keyint_min=23 / scenecut=40 / intra_refresh=0 / rc_lookahead=50 / rc=2pass / mbtree=1 / bitrate=5827 / ratetol=1.0 / qcomp=0.60 / qpmin=0 / qpmax=69 / qpstep=4 / cplxblur=20.0 / qblur=0.5 / ip_ratio=1.40 / aq=1:1.00
Default                                  : Yes
Forced                                   : No

Audio
ID                                       : 2
Format                                   : DTS
Format/Info                              : Digital Theater Systems
Codec ID                                 : A_DTS
Duration                                 : 1 h 25 min
Bit rate mode                            : Constant
Bit rate                                 : 1 509 kb/s
Channel(s)                               : 6 channels
Channel layout                           : C L R Ls Rs LFE
Sampling rate                            : 48.0 kHz
Frame rate                               : 93.750 FPS (512 SPF)
Bit depth                                : 24 bits
Compression mode                         : Lossy
Stream size                              : 920 MiB (21%)
Language                                 : English
Default                                  : Yes
Forced                                   : No

Menu
00:00:00.000                             : en:00:00:00.000
00:13:54.917                             : en:00:13:54.917
00:29:57.963                             : en:00:29:57.963
00:42:03.604                             : en:00:42:03.604
00:53:20.781                             : en:00:53:20.781
01:02:25.325                             : en:01:02:25.325
01:12:00.691                             : en:01:12:00.691
01:20:12.349                             : en:01:20:12.349



                                                                                                                                                                                                        
                                                                                                                                                                                                                                                                                                                                                                                                                                                                                                                                                                                                                                                                                                                                                                                                                                                      
ebe8c46886bb009d3d42155850104d17.torrent (44.48 KB, 下载次数: 0)

回复

使用道具 举报

小黑屋|西西论坛

本网站所有资源来自网络,如无意中侵犯了您的权益,请发邮件至 [email protected],立即清除相关链接

GMT+8, 2020-4-4 21:04 , Processed in 0.069424 second(s), 23 queries .

Powered by Discuz! X3.2

© 2001-2013 Comsenz Inc.

快速回复 返回顶部 返回列表