西西论坛

 找回密码
 立即注册
搜索

[BD-4K] 沉睡魔咒2 Maleficent.Mistress.of.Evil.2019.2160p.BluRay.x265.10bit.SDR.DT...

[复制链接]
电影首发 发表于 2020-1-6 12:11:30 | 显示全部楼层 |阅读模式
帖子完整标题:沉睡魔咒2 Maleficent.Mistress.of.Evil.2019.2160p.BluRay.x265.10bit.SDR.DTS-HD.MA.TrueHD.7.1.Atmos-SWTYBLZ 29.54GB




◎译  名 沉睡魔咒2 / Maleficent 2 / 沉睡魔咒2:恶魔夫人 / 玛琳菲森2 / 黑魔后2(港) / 黑魔女2(台)
◎片  名 Maleficent: Mistress of Evil
◎年  代 2019
◎产  地 美国
◎类  别 奇幻 / 冒险
◎语  言 英语
◎上映日期 2019-10-18(美国/中国大陆)
◎IMDb评分  7.0/10 from 1529 users
◎片  长 119分钟
◎导  演 乔阿吉姆·罗恩尼 Joachim R?nning
◎编  剧 迈卡·费兹曼-布卢 Micah Fitzerman-Blue / 诺亚·哈普斯特 Noah Harpster / 琳达·伍尔芙顿 Linda Woolverton
◎主  演 安吉丽娜·朱莉 Angelina Jolie
       艾丽·范宁 Elle Fanning
       米歇尔·菲佛 Michelle Pfeiffer
       萨姆·赖利 Sam Riley
       哈里斯·迪金森 Harris Dickinson
       艾德·斯克林 Ed Skrein
       切瓦特·埃加福特 Chiwetel Ejiofor
       朱诺·坦普尔 Juno Temple
       艾美达·斯丹顿 Imelda Staunton
       卡·亚历山大 Kae Alexander
       莱丝利·曼维尔 Lesley Manville
       詹·穆瑞 Jenn Murray
       石原贵雅 Miyavi
       大卫·吉雅西 David Gyasi
       罗伯特·林德森 Robert Lindsay
       朱迪斯·沙克妮 Judith Shekoni
       伯纳多·桑托斯 Bernardo Santos
       萨克·霍兰 Zak Holland
       巴里·艾尔德 Barry Aird
       耶斯·利奥丹 Jess Liaudin
       拉塞尔·巴洛格 Russell Balogh
       拉亚·坎普贝尔 Rayna Campbell
       斯嘉丽·格兰特 Scarlett Grant
       汤姆·伯宁顿 Tom Bonington
       阿克塞尔·努 Axel Nu
       特蕾莎·马奥尼 Teresa Mahoney
       John Carew


◎标  签 迪士尼 | 童话 | 奇幻 | 美国 | 2019 | 魔幻 | 美 | 童话改编

◎简  介  

  《沉睡魔咒》续集将讲述魔女玛琳菲森(朱莉)和将成为女王的爱洛公主(范宁)关系缓和但依旧复杂,但两人要联手对付新的反派,保护森林王国和那里神奇的动物们。
Video
ID                                       : 1
Format                                   : HEVC
Format/Info                              : High Efficiency Video Coding
Codec ID                                 : V_MPEGH/ISO/HEVC
Duration                                 : 1 h 58 min
Bit rate                                 : 25.6 Mb/s
Width                                    : 3 840 pixels
Height                                   : 1 608 pixels
Display aspect ratio                     : 2.40:1
Frame rate mode                          : Constant
Frame rate                               : 23.976 (24000/1001) FPS
Color space                              : YUV
Chroma subsampling                       : 4:2:0
Bit depth                                : 10 bits
Bits/(Pixel*Frame)                       : 0.173
Stream size                              : 21.3 GiB (72%)
Title                                    : Maleficent.Mistress.of.Evil.2019.2160p.BluRay.x265.10bit.SDR.DTS-HD.MA.TrueHD.7.1.Atmos-SWTYBLZ
Writing library                          : x265 3.0ed72af837053:[Windows][GCC 8.2.0][64 bit] 10bit
Encoding settings                        : cpuid=1111039 / frame-threads=16 / numa-pools=40 / wpp / no-pmode / no-pme / no-psnr / no-ssim / log-level=2 / input-csp=1 / input-res=3840x1608 / interlace=0 / total-frames=170977 / level-idc=51 / high-tier=1 / uhd-bd=0 / ref=3 / no-allow-non-conformance / repeat-headers / annexb / aud / hrd / info / hash=0 / no-temporal-layers / no-open-gop / min-keyint=1 / keyint=24 / gop-lookahead=0 / bframes=4 / b-adapt=2 / b-pyramid / bframe-bias=0 / rc-lookahead=25 / lookahead-slices=4 / scenecut=40 / radl=0 / no-splice / no-intra-refresh / ctu=64 / min-cu-size=8 / no-rect / no-amp / max-tu-size=32 / tu-inter-depth=1 / tu-intra-depth=1 / limit-tu=0 / rdoq-level=0 / dynamic-rd=0.00 / no-ssim-rd / signhide / no-tskip / nr-intra=0 / nr-inter=0 / no-constrained-intra / strong-intra-smoothing / max-merge=2 / limit-refs=3 / no-limit-modes / me=1 / subme=2 / merange=57 / temporal-mvp / weightp / no-weightb / no-analyze-src-pics / deblock=0:0 / no-sao / no-sao-non-deblock / rd=3 / no-early-skip / rskip / no-fast-intra / no-tskip-fast / no-cu-lossless / no-b-intra / no-splitrd-skip / rdpenalty=0 / psy-rd=2.00 / psy-rdoq=0.00 / no-rd-refine / no-lossless / cbqpoffs=0 / crqpoffs=0 / rc=crf / crf=16.0 / qcomp=0.60 / qpstep=4 / stats-write=0 / stats-read=0 / vbv-maxrate=160000 / vbv-bufsize=160000 / vbv-init=0.9 / crf-max=0.0 / crf-min=0.0 / ipratio=1.40 / pbratio=1.30 / aq-mode=1 / aq-strength=1.00 / cutree / zone-count=0 / no-strict-cbr / qg-size=32 / no-rc-grain / qpmax=69 / qpmin=0 / no-const-vbv / sar=1 / overscan=0 / videoformat=5 / range=0 / colorprim=2 / transfer=2 / colormatrix=2 / chromaloc=0 / display-window=0 / max-cll=0,0 / min-luma=0 / max-luma=1023 / log2-max-poc-lsb=8 / vui-timing-info / vui-hrd-info / slices=1 / opt-qp-pps / opt-ref-list-length-pps / no-multi-pass-opt-rps / scenecut-bias=0.05 / no-opt-cu-delta-qp / no-aq-motion / no-hdr / no-hdr-opt / no-dhdr10-opt / no-idr-recovery-sei / analysis-reuse-level=5 / scale-factor=0 / refine-intra=0 / refine-inter=0 / refine-mv=0 / refine-ctu-distortion=0 / no-limit-sao / ctu-info=0 / no-lowpass-dct / refine-analysis-type=0 / copy-pic=1 / max-ausize-factor=1.0 / no-dynamic-refine / no-single-sei / no-hevc-aq / qp-adaptation-range=1.00
Default                                  : Yes
Forced                                   : No

Audio #1
ID                                       : 2
Format                                   : MLP FBA 16-ch
Format/Info                              : Meridian Lossless Packing FBA with 16-channel presentation
Commercial name                          : Dolby TrueHD with Dolby Atmos
Codec ID                                 : A_TRUEHD
Duration                                 : 1 h 58 min
Bit rate mode                            : Variable
Bit rate                                 : 5 128 kb/s
Maximum bit rate                         : 8 160 kb/s
Channel(s)                               : 8 channels
Channel layout                           : L R C LFE Ls Rs Lb Rb
Sampling rate                            : 48.0 kHz
Frame rate                               : 1 200.000 FPS (40 SPF)
Compression mode                         : Lossless
Stream size                              : 4.26 GiB (14%)
Title                                    : Maleficent.Mistress.of.Evil.2019.2160p.BluRay.x265.10bit.SDR.DTS-HD.MA.TrueHD.7.1.Atmos-SWTYBLZ
Language                                 : English
Default                                  : Yes
Forced                                   : No
Number of dynamic objects                : 13
Bed channel count                        : 1 channel
Bed channel configuration                : LFE


Menu
00:00:00.000                             : en:Chapter 01
00:06:47.907                             : en:Chapter 02
00:09:11.676                             : en:Chapter 03
00:14:45.551                             : en:Chapter 04
00:19:27.833                             : en:Chapter 05
00:23:10.555                             : en:Chapter 06
00:33:51.904                             : en:Chapter 07
00:39:10.264                             : en:Chapter 08
00:42:19.245                             : en:Chapter 09
00:48:31.992                             : en:Chapter 10
00:52:44.619                             : en:Chapter 11
00:57:15.056                             : en:Chapter 12
00:59:25.895                             : en:Chapter 13
01:05:47.568                             : en:Chapter 14
01:09:31.750                             : en:Chapter 15
01:19:06.867                             : en:Chapter 16
01:22:48.546                             : en:Chapter 17
01:29:09.218                             : en:Chapter 18
01:35:00.403                             : en:Chapter 19
01:44:26.510                             : en:Chapter 20
01:51:06.993                             : en:Chapter 21



                                                                                                                                                                                                        
                                                                                                                                                                                                                                                                                                                                                                                                                                                                                                                                                                                                                                                                                                                                                                                                                                                      
e5c4ccf808c227b73be05c039e00a1f0.torrent (74.52 KB, 下载次数: 0)

回复

使用道具 举报

小黑屋|西西论坛

本网站所有资源来自网络,如无意中侵犯了您的权益,请发邮件至 [email protected],立即清除相关链接

GMT+8, 2020-2-29 14:30 , Processed in 0.073563 second(s), 23 queries .

Powered by Discuz! X3.2

© 2001-2013 Comsenz Inc.

快速回复 返回顶部 返回列表