西西论坛

 找回密码
 立即注册
搜索

双子杀手/双子任务:叠影危机 Gemini.Man.2019.720p.BluRay.x264-SPARK...

[复制链接]
电影首发 发表于 2020-1-4 09:52:41 | 显示全部楼层 |阅读模式
帖子完整标题:双子杀手/双子任务:叠影危机 Gemini.Man.2019.720p.BluRay.x264-SPARKS 4.39GB




◎译  名 双子杀手 / 双子任务:叠影危机(港) / 双子煞星
◎片  名 Gemini Man
◎年  代 2019
◎产  地 美国 / 中国大陆
◎类  别 剧情 / 动作 / 科幻
◎语  言 英语
◎上映日期 2019-10-11(美国) / 2019-10-18(中国大陆)
◎IMDb评分  5.7/10 from 19509 users
◎片  长 117分钟
◎导  演 李安 Ang Lee
◎编  剧 戴维·贝尼奥夫 David Benioff / 比利·雷 Billy Ray / 达伦·莱姆克 Darren Lemke
◎主  演 威尔·史密斯 Will Smith
       玛丽·伊丽莎白·温斯特德 Mary Elizabeth Winstead
       克里夫·欧文 Clive Owen
       本尼迪克特·王 Benedict Wong
       道格拉斯·霍奇斯 Douglas Hodges
       拉尔夫·布朗 Ralph Brown
       琳达·伊蒙 Linda Emond
       伊利亚·沃里克 Ilia Volok
       E·J·博尼拉 E.J. Bonilla
       维克多·雨果 Victor Hugo
       大卫·莫拉蒂 David Moretti
       西奥多拉·伍利 Theodora Woolley
       亚历山德拉·苏奇 Alexandra Szucs
       费尔南达·多罗吉 Fernanda Dorogi
       提姆·康纳利 Tim Connolly
       比约恩·弗赖贝格 Bj?rn Freiberg
       施奎塔·詹姆斯 Shiquita James
       肯尼·谢尔德 Kenny Sheard
       Diego Adonye
       Igor Szasz
       Lilla Banak


◎标  签 动作 | 美国 | 科幻 | 120帧 | 克隆 | 2019 | 剧情 | 悬疑

◎简  介  

  美国国防情报局特工亨利(威尔·史密斯饰),准备退休之际意外遭到一名神秘杀手的追杀,在两人的激烈较量中,他发现这名杀手竟然是年轻了20多岁的自己,一场我与我的对决旋即展开,而背后的真相也逐渐浮出水面。
Video
ID                                       : 1
Format                                   : AVC
Format/Info                              : Advanced Video Codec
Format settings                          : CABAC / 5 Ref Frames
Format settings, CABAC                   : Yes
Format settings, Reference frames        : 5 frames
Codec ID                                 : V_MPEG4/ISO/AVC
Duration                                 : 1 h 57 min
Bit rate                                 : 4 706 kb/s
Width                                    : 1 280 pixels
Height                                   : 688 pixels
Display aspect ratio                     : 1.85:1
Frame rate mode                          : Constant
Frame rate                               : 23.976 (24000/1001) FPS
Color space                              : YUV
Chroma subsampling                       : 4:2:0
Bit depth                                : 8 bits
Scan type                                : Progressive
Bits/(Pixel*Frame)                       : 0.223
Stream size                              : 3.85 GiB (88%)
Writing library                          : x264 core 158 r2988 7817004
Encoding settings                        : cabac=1 / ref=5 / deblock=1:-3:-3 / analyse=0x3:0x113 / me=umh / subme=8 / psy=1 / psy_rd=1.00:0.00 / mixed_ref=1 / me_range=16 / chroma_me=1 / trellis=1 / 8x8dct=1 / cqm=0 / deadzone=21,11 / fast_pskip=1 / chroma_qp_offset=-2 / threads=21 / lookahead_threads=3 / sliced_threads=0 / nr=0 / decimate=1 / interlaced=0 / bluray_compat=0 / constrained_intra=0 / bframes=3 / b_pyramid=2 / b_adapt=1 / b_bias=0 / direct=3 / weightb=1 / open_gop=0 / weightp=2 / keyint=250 / keyint_min=23 / scenecut=40 / intra_refresh=0 / rc_lookahead=50 / rc=2pass / mbtree=1 / bitrate=4706 / ratetol=1.0 / qcomp=0.60 / qpmin=0 / qpmax=69 / qpstep=4 / cplxblur=20.0 / qblur=0.5 / ip_ratio=1.40 / aq=1:1.00
Language                                 : English
Default                                  : Yes
Forced                                   : No

Audio
ID                                       : 2
Format                                   : AC-3
Format/Info                              : Audio Coding 3
Commercial name                          : Dolby Digital
Codec ID                                 : A_AC3
Duration                                 : 1 h 57 min
Bit rate mode                            : Constant
Bit rate                                 : 640 kb/s
Channel(s)                               : 6 channels
Channel layout                           : L R C LFE Ls Rs
Sampling rate                            : 48.0 kHz
Frame rate                               : 31.250 FPS (1536 SPF)
Bit depth                                : 16 bits
Compression mode                         : Lossy
Stream size                              : 536 MiB (12%)
Language                                 : English
Service kind                             : Complete Main
Default                                  : Yes
Forced                                   : No

Menu
00:00:00.000                             : en:00:00:00.000
00:07:21.650                             : en:00:07:21.650
00:15:31.681                             : en:00:15:31.681
00:18:13.134                             : en:00:18:13.134
00:24:39.520                             : en:00:24:39.520
00:30:59.441                             : en:00:30:59.441
00:34:09.464                             : en:00:34:09.464
00:42:40.308                             : en:00:42:40.308
00:50:24.897                             : en:00:50:24.897
00:56:45.819                             : en:00:56:45.819
01:03:30.306                             : en:01:03:30.306
01:08:13.172                             : en:01:08:13.172
01:16:45.935                             : en:01:16:45.935
01:24:43.996                             : en:01:24:43.996
01:30:04.733                             : en:01:30:04.733
01:34:00.927                             : en:01:34:00.927
01:42:14.462                             : en:01:42:14.462
01:47:07.588                             : en:01:47:07.588



                                                                                                                                                                                                        
                                                                                                                                                                                                                                                                                                                                                                                                                                                                                                                                                                                                                                                                                                                                                                                                                                                      
e746683e978fb4dd025d10a050bc3d9e.torrent (44.72 KB, 下载次数: 0)

回复

使用道具 举报

小黑屋|西西论坛

本网站所有资源来自网络,如无意中侵犯了您的权益,请发邮件至 [email protected],立即清除相关链接

GMT+8, 2020-3-31 14:33 , Processed in 0.082606 second(s), 23 queries .

Powered by Discuz! X3.2

© 2001-2013 Comsenz Inc.

快速回复 返回顶部 返回列表