西西论坛

 找回密码
 立即注册
搜索

第一滴血5:最后的血 Rambo.Last.Blood.2019.EXTENDED.720p.BluRay.x264.DT...

[复制链接]
电影首发 发表于 2020-1-4 09:52:41 | 显示全部楼层 |阅读模式
帖子完整标题:第一滴血5:最后的血 Rambo.Last.Blood.2019.EXTENDED.720p.BluRay.x264.DTS-FGT 4.92GB




◎译  名 第一滴血5:最后的血 / Rambo 5 / Rambo 5: Last Blood / Rambo V / Rambo V: Last Blood / 兰博5:最后一滴血 / 第一滴血5 / 第一滴血:最后一战 / 第一滴血:终极血战(港) / 蓝波:最后一滴血(台)
◎片  名 Rambo: Last Blood
◎年  代 2019
◎产  地 美国
◎类  别 动作 / 惊悚 / 冒险
◎语  言 英语
◎上映日期 2019-09-20(美国)
◎IMDb评分  6.7/10 from 23992 users
◎片  长 89分钟
◎导  演 阿德里安·格鲁伯格 Adrian Grunberg
◎编  剧 马修·西鲁尼克 Matthew Cirulnick / 大卫·莫瑞尔 David Morrell / 西尔维斯特·史泰龙 Sylvester Stallone
◎主  演 西尔维斯特·史泰龙 Sylvester Stallone
       帕斯·贝加 Paz Vega
       路易·曼迪勒 Louis Mandylor
       奥斯卡·贾恩那达 óscar Jaenada
       维特·蒙雷尔 Yvette Monreal
       华金·科西奥 Joaquín Cosio
       杰西卡·马德森 Jessica Madsen
       艾德里安娜·巴拉扎 Adriana Barraza
       塞尔吉奥·佩里斯-门切塔 Sergio Peris-Mencheta
       阿塔纳斯·斯雷布雷夫 Atanas Srebrev
       尼克·威特曼 Nick Wittman


◎标  签 动作 | 硬汉 | 美国 | 经典 | 暴力 | 战争 | 血腥 | 2019

◎简  介  

  西尔维斯特·史泰龙回归[第一滴血5],并有望执导。除主演外,据悉史泰龙将操刀剧本,故事围绕兰博为营救朋友之女与墨西哥毒枭展开殊死搏斗展开。制片艾威·勒纳([敢死队]系列)。该系列首部于1982年上映,2008年史泰龙曾自导自演[第一滴血4]。[第一滴血5]将在本届戛纳电影节预售,9月开拍。
Video
ID                                       : 1
Format                                   : AVC
Format/Info                              : Advanced Video Codec
Format settings                          : CABAC / 4 Ref Frames
Format settings, CABAC                   : Yes
Format settings, Reference frames        : 4 frames
Codec ID                                 : V_MPEG4/ISO/AVC
Duration                                 : 1 h 40 min
Bit rate                                 : 5 500 kb/s
Width                                    : 1 280 pixels
Height                                   : 536 pixels
Display aspect ratio                     : 2.40:1
Frame rate mode                          : Constant
Frame rate                               : 23.976 (24000/1001) FPS
Color space                              : YUV
Chroma subsampling                       : 4:2:0
Bit depth                                : 8 bits
Scan type                                : Progressive
Bits/(Pixel*Frame)                       : 0.334
Stream size                              : 3.86 GiB (78%)
Title                                    : Rambo.Last.Blood.2019.EXTENDED.720p.BluRay.x264.DTS-FGT
Writing library                          : x264 core 148 r2748 97eaef2
Encoding settings                        : cabac=1 / ref=4 / deblock=1:-2:-2 / analyse=0x3:0x113 / me=umh / subme=9 / psy=1 / psy_rd=1.00:0.15 / mixed_ref=1 / me_range=16 / chroma_me=1 / trellis=2 / 8x8dct=1 / cqm=0 / deadzone=21,11 / fast_pskip=1 / chroma_qp_offset=-3 / threads=72 / lookahead_threads=3 / sliced_threads=0 / nr=0 / decimate=1 / interlaced=0 / bluray_compat=0 / constrained_intra=0 / bframes=3 / b_pyramid=2 / b_adapt=1 / b_bias=0 / direct=3 / weightb=1 / open_gop=0 / weightp=2 / keyint=250 / keyint_min=25 / scenecut=40 / intra_refresh=0 / rc_lookahead=50 / rc=2pass / mbtree=1 / bitrate=5500 / ratetol=1.0 / qcomp=0.60 / qpmin=0 / qpmax=69 / qpstep=4 / cplxblur=20.0 / qblur=0.5 / vbv_maxrate=31250 / vbv_bufsize=31250 / nal_hrd=none / filler=0 / ip_ratio=1.40 / aq=1:1.00
Language                                 : English
Default                                  : Yes
Forced                                   : No

Audio
ID                                       : 2
Format                                   : DTS
Format/Info                              : Digital Theater Systems
Codec ID                                 : A_DTS
Duration                                 : 1 h 40 min
Bit rate mode                            : Constant
Bit rate                                 : 1 509 kb/s
Channel(s)                               : 6 channels
Channel layout                           : C L R Ls Rs LFE
Sampling rate                            : 48.0 kHz
Frame rate                               : 93.750 FPS (512 SPF)
Bit depth                                : 16 bits
Compression mode                         : Lossy
Stream size                              : 1.06 GiB (22%)
Title                                    : Rambo.Last.Blood.2019.EXTENDED.720p.BluRay.x264.DTS-FGT
Language                                 : English
Default                                  : Yes
Forced                                   : No

Text
ID                                       : 3
Format                                   : UTF-8
Codec ID                                 : S_TEXT/UTF8
Codec ID/Info                            : UTF-8 Plain Text
Duration                                 : 1 h 29 min
Bit rate                                 : 30 b/s
Count of elements                        : 748
Stream size                              : 20.0 KiB (0%)
Language                                 : English
Default                                  : Yes
Forced                                   : No

Menu
00:00:00.000                             : en:Chapter 1
00:08:30.343                             : en:Chapter 2
00:18:18.556                             : en:Chapter 3
00:25:01.667                             : en:Chapter 4
00:33:17.746                             : en:Chapter 5
00:42:54.405                             : en:Chapter 6
00:50:56.428                             : en:Chapter 7
00:59:35.947                             : en:Chapter 8
01:08:03.329                             : en:Chapter 9
01:15:21.684                             : en:Chapter 10
01:25:46.683                             : en:Chapter 11
01:33:41.533                             : en:Chapter 12



                                                                                                                                                                                                        
                                                                                                                                                                                                                                                                                                                                                                                                                                                                                                                                                                                                                                                                                                                                                                                                                                                      
819c8983bb985c358510f749776d37e8.torrent (49.77 KB, 下载次数: 0)

回复

使用道具 举报

小黑屋|西西论坛

本网站所有资源来自网络,如无意中侵犯了您的权益,请发邮件至 [email protected],立即清除相关链接

GMT+8, 2020-3-31 13:35 , Processed in 0.071266 second(s), 23 queries .

Powered by Discuz! X3.2

© 2001-2013 Comsenz Inc.

快速回复 返回顶部 返回列表