西西论坛

 找回密码
 立即注册
搜索

尤利/芭蕾王者尤利 Yuli.2018.720p.BluRay.x264-USURY 4.37GB

[复制链接]
电影首发 发表于 2020-1-1 09:41:34 | 显示全部楼层 |阅读模式
帖子完整标题:尤利/芭蕾王者尤利 Yuli.2018.720p.BluRay.x264-USURY 4.37GB




◎译  名 尤利 / 芭蕾王者尤利(台) / 飞跃芭蕾(港)
◎片  名 Yuli
◎年  代 2018
◎产  地 西班牙 / 古巴 / 英国 / 德国
◎类  别 剧情 / 音乐 / 传记
◎语  言 西班牙语 / 英语
◎上映日期 2018-09-23(圣塞巴斯蒂安电影节) / 2018-12-14(西班牙)
◎IMDb评分  7.1/10 from 1104 users
◎片  长 115分钟
◎导  演 伊西亚尔·博利亚因 Icíar Bollaín
◎编  剧 保罗·拉弗蒂 Paul Laverty / 卡洛斯·阿科斯塔 Carlos Acosta
◎主  演 卡洛斯·阿科斯塔 Carlos Acosta
       圣地亚哥·阿尔方索 Santiago Alfonso
       凯文·马丁内斯 Keyvin Martínez
       埃德里森·曼努埃尔·奥尔贝拉·努内斯 Edlison Manuel Olbera Nú?ez
       劳拉·德·拉乌兹 Laura De la Uz
       卡斯特罗 Fidel Castro


◎标  签 传记 | 古巴 | 芭蕾舞 | 舞蹈 | 西班牙 | 2018 | 剧情 | 英国

◎简  介  

  尤利(卡洛斯阿科斯塔的绰号)是一个天才男孩,不受管教又不爱上学,成天在哈瓦那的街头厮混,与人BATTLE街舞,他的父亲深知儿子有舞蹈天赋,一手将他从街头拽回,强迫他进入古巴国家舞蹈学校学习芭蕾,贪玩的尤利一点也不想穿紧身裤,只想成为像球王比利那样的足球明星,总以逃课、打架等表达自己的不情愿,然而在学院老师的用心栽培与指导下,最后他还是一头栽进迷人的舞蹈世界,凭藉他的天分与努力,逐渐打造出属于他的人生传奇,成为一代耀眼的首席舞者,并打破传统,成为第一位伦敦皇家芭蕾舞团演出罗密欧的黑人舞者,锻造出长达17年的辉煌职业生涯。
  ☆英国广播公司(BBC) 鼎力製作
  ☆本世代最伟大的舞者 卡洛斯阿科斯塔 自传改编
  ☆【我是布莱克】金奖编剧 保罗拉维提 倾力打造
  ☆【时代启示录】金奖女导演 伊希亚波拉因 再创传记巨作
  ☆【谍影行动】奥斯卡提名配乐大师 伊格勒西亚斯 音乐加持
  ?荣获 圣赛巴斯提安国际影展 最佳剧本奖
  ?荣获 白俄罗斯明斯克国际影展 观众票选最佳影片奖
  ?圣赛巴斯提安国际影展 最佳剧情片 提名
  ?西班牙哥雅奖 共5项提名
  ?西班牙影评人协会奖 最佳新演员、摄影、配乐奖 提名
  ?西班牙费洛兹奖 最佳原创音乐奖 提名
  ?德国汉堡影展 最佳剧情片 提名
  ?迈阿密影展 最佳剧情片 提名

◎获奖情况  

  第33届西班牙戈雅奖(2019)
  最佳新人男演员(提名) 卡洛斯·阿科斯塔
  最佳改编剧本(提名) 保罗·拉弗蒂
  最佳摄影(提名)
  最佳音效(提名)
  最佳原创音乐(提名)

  第66届圣塞巴斯蒂安国际电影节(2018)
  金贝壳奖(提名) 伊西亚尔·博利亚因
  最佳剧本 保罗·拉弗蒂

  第22届英国独立电影奖(2019)
  最佳男配角(提名) 埃德里森·曼努埃尔·奥尔贝拉·努内斯
Video
ID                                       : 1
Format                                   : AVC
Format/Info                              : Advanced Video Codec
Format settings                          : CABAC / 5 Ref Frames
Format settings, CABAC                   : Yes
Format settings, Reference frames        : 5 frames
Codec ID                                 : V_MPEG4/ISO/AVC
Duration                                 : 1 h 51 min
Bit rate                                 : 4 845 kb/s
Width                                    : 1 280 pixels
Height                                   : 536 pixels
Display aspect ratio                     : 2.40:1
Frame rate mode                          : Constant
Frame rate                               : 24.000 FPS
Color space                              : YUV
Chroma subsampling                       : 4:2:0
Bit depth                                : 8 bits
Scan type                                : Progressive
Bits/(Pixel*Frame)                       : 0.294
Stream size                              : 3.77 GiB (86%)
Writing library                          : x264 core 157 r2969 d4099dd
Encoding settings                        : cabac=1 / ref=5 / deblock=1:-3:-3 / analyse=0x3:0x133 / me=umh / subme=9 / psy=1 / psy_rd=1.00:0.00 / mixed_ref=1 / me_range=16 / chroma_me=1 / trellis=2 / 8x8dct=1 / cqm=0 / deadzone=21,11 / fast_pskip=0 / chroma_qp_offset=-2 / threads=17 / lookahead_threads=1 / sliced_threads=0 / nr=0 / decimate=1 / interlaced=0 / bluray_compat=0 / constrained_intra=0 / bframes=3 / b_pyramid=2 / b_adapt=1 / b_bias=0 / direct=3 / weightb=1 / open_gop=0 / weightp=2 / keyint=240 / keyint_min=24 / scenecut=40 / intra_refresh=0 / rc_lookahead=50 / rc=2pass / mbtree=1 / bitrate=4845 / ratetol=1.0 / qcomp=0.60 / qpmin=0 / qpmax=69 / qpstep=4 / cplxblur=20.0 / qblur=0.5 / ip_ratio=1.40 / aq=1:1.00
Language                                 : English
Default                                  : Yes
Forced                                   : No

Audio
ID                                       : 2
Format                                   : DTS
Format/Info                              : Digital Theater Systems
Codec ID                                 : A_DTS
Duration                                 : 1 h 51 min
Bit rate mode                            : Constant
Bit rate                                 : 768 kb/s
Channel(s)                               : 6 channels
Channel layout                           : C L R Ls Rs LFE
Sampling rate                            : 48.0 kHz
Frame rate                               : 93.750 FPS (512 SPF)
Bit depth                                : 24 bits
Compression mode                         : Lossy
Stream size                              : 612 MiB (14%)
Language                                 : Spanish
Default                                  : Yes
Forced                                   : No

Text #1
ID                                       : 3
Format                                   : UTF-8
Codec ID                                 : S_TEXT/UTF8
Codec ID/Info                            : UTF-8 Plain Text
Duration                                 : 1 h 40 min
Bit rate                                 : 36 b/s
Count of elements                        : 839
Stream size                              : 26.9 KiB (0%)
Title                                    : English
Language                                 : English
Default                                  : Yes
Forced                                   : Yes

Text #2
ID                                       : 4
Format                                   : UTF-8
Codec ID                                 : S_TEXT/UTF8
Codec ID/Info                            : UTF-8 Plain Text
Duration                                 : 28 min 33 s
Bit rate                                 : 8 b/s
Count of elements                        : 51
Stream size                              : 1.81 KiB (0%)
Title                                    : Spanish forced
Language                                 : Spanish
Default                                  : No
Forced                                   : No

Menu
00:00:00.000                             : en:00:00:00.000
00:11:53.208                             : en:00:11:53.208
00:22:52.833                             : en:00:22:52.833
00:33:48.792                             : en:00:33:48.792
00:43:43.333                             : en:00:43:43.333
00:52:38.917                             : en:00:52:38.917
01:02:25.458                             : en:01:02:25.458
01:13:14.750                             : en:01:13:14.750
01:23:26.625                             : en:01:23:26.625
01:33:01.625                             : en:01:33:01.625
01:46:29.333                             : en:01:46:29.333



                                                                                                                                                                                                        
                                                                                                                                                                                                                                                                                                                                                                                                                                                                                                                                                                                                                                                                                                                                                                                                                                                      
a7f91bf3a2aa6cb7eb34d81e0fdce8be.torrent (44.32 KB, 下载次数: 0)

回复

使用道具 举报

小黑屋|西西论坛

本网站所有资源来自网络,如无意中侵犯了您的权益,请发邮件至 [email protected],立即清除相关链接

GMT+8, 2020-3-30 11:40 , Processed in 0.069474 second(s), 23 queries .

Powered by Discuz! X3.2

© 2001-2013 Comsenz Inc.

快速回复 返回顶部 返回列表