西西论坛

 找回密码
 立即注册
搜索

承诺 The.Promise.2017.720p.BluRay.x264-REGRET 4.37GB

[复制链接]
电影首发 发表于 2019-12-27 12:22:30 | 显示全部楼层 |阅读模式
帖子完整标题:承诺 The.Promise.2017.720p.BluRay.x264-REGRET 4.37GB




◎译  名 承诺 / The Promise / 亲爱的朋友 / 尸约(台)
◎片  名 ??????????????
◎年  代 2017
◎产  地 泰国
◎类  别 剧情 / 惊悚 / 恐怖
◎语  言 泰语
◎上映日期 2017-09-07(泰国)
◎IMDb评分  6.1/10 from 698 users
◎片  长 114分钟
◎导  演 索分·沙达菲斯 Sopon Sukdapisit
◎编  剧 索分·沙达菲斯 Sopon Sukdapisit / Sopana Chaowiwatkul / Supalerk Ningsanond
◎主  演 楠迪·宗拉维蒙 Namthip Jongrachatawiboon
       安比查雅·松可寒 Apichaya Thongkham
       Thunyaphat Pattarateerachaicharoen
       Panisara Rikulsurakan
       Duentem Salitul
       Benjamin Joseph Varney
       Suchada Poonpattanasuk
       Surachai Ningsanond
       Teerapop Songwaja
       Duangjai Hiransri


◎标  签 恐怖 | 泰国 | 惊悚 | 鬼片 | 2017 | 亲情 | 友情 | 人性

◎简  介  

  1997年,亚洲金融危机如同暴风雨一般席卷各国,公司倒闭已成寻常,老板富贾逃亡自杀,普通民众的生活愈加困苦。富家女孩布姆(Thunyaphat Pattarateerachaicharoen 饰)父亲所盖的大楼最终烂尾,遭到父亲家暴后,万念俱灰的布姆和伊布(Panisara Rikulsurakan 饰)相约自杀。阴差阳错,贝尔去往另一个世界,布姆则苟活人间。
  时光流转,20年后的布姆(楠迪·宗拉维蒙 Namthip Jongrachatawiboon 饰)已成为小有名气的房地产企业家。某天,她带着女儿贝尔(安比查雅?松可寒 Apichaya Thongkham 饰)再次来到当年和朋友自杀的烂尾楼。顽皮的贝尔四处游荡,捡到了母亲当初和伊布沟通的BP机。殊不知,一个孤独的灵魂已在此等候多年,只为了践行未完的承诺……
Video
ID                                       : 1
Format                                   : AVC
Format/Info                              : Advanced Video Codec
Format settings                          : CABAC / 5 Ref Frames
Format settings, CABAC                   : Yes
Format settings, Reference frames        : 5 frames
Codec ID                                 : V_MPEG4/ISO/AVC
Duration                                 : 1 h 53 min
Bit rate                                 : 4 856 kb/s
Width                                    : 1 280 pixels
Height                                   : 536 pixels
Display aspect ratio                     : 2.40:1
Frame rate mode                          : Constant
Frame rate                               : 23.976 (24000/1001) FPS
Color space                              : YUV
Chroma subsampling                       : 4:2:0
Bit depth                                : 8 bits
Scan type                                : Progressive
Bits/(Pixel*Frame)                       : 0.295
Stream size                              : 3.86 GiB (88%)
Writing library                          : x264 core 158 r2988 7817004
Encoding settings                        : cabac=1 / ref=5 / deblock=1:-3:-3 / analyse=0x3:0x133 / me=umh / subme=9 / psy=1 / psy_rd=1.00:0.00 / mixed_ref=1 / me_range=16 / chroma_me=1 / trellis=2 / 8x8dct=1 / cqm=0 / deadzone=21,11 / fast_pskip=0 / chroma_qp_offset=-2 / threads=17 / lookahead_threads=1 / sliced_threads=0 / nr=0 / decimate=1 / interlaced=0 / bluray_compat=0 / constrained_intra=0 / bframes=3 / b_pyramid=2 / b_adapt=1 / b_bias=0 / direct=3 / weightb=1 / open_gop=0 / weightp=2 / keyint=240 / keyint_min=24 / scenecut=40 / intra_refresh=0 / rc_lookahead=50 / rc=2pass / mbtree=1 / bitrate=4856 / ratetol=1.0 / qcomp=0.60 / qpmin=0 / qpmax=69 / qpstep=4 / cplxblur=20.0 / qblur=0.5 / ip_ratio=1.40 / aq=1:1.00
Language                                 : English
Default                                  : Yes
Forced                                   : No

Audio
ID                                       : 2
Format                                   : AC-3
Format/Info                              : Audio Coding 3
Commercial name                          : Dolby Digital
Codec ID                                 : A_AC3
Duration                                 : 1 h 53 min
Bit rate mode                            : Constant
Bit rate                                 : 640 kb/s
Channel(s)                               : 6 channels
Channel layout                           : L R C LFE Ls Rs
Sampling rate                            : 48.0 kHz
Frame rate                               : 31.250 FPS (1536 SPF)
Bit depth                                : 16 bits
Compression mode                         : Lossy
Stream size                              : 521 MiB (12%)
Language                                 : Thai
Service kind                             : Complete Main
Default                                  : Yes
Forced                                   : No

Text
ID                                       : 3
Format                                   : UTF-8
Codec ID                                 : S_TEXT/UTF8
Codec ID/Info                            : UTF-8 Plain Text
Duration                                 : 1 h 44 min
Bit rate                                 : 28 b/s
Count of elements                        : 951
Stream size                              : 22.2 KiB (0%)
Title                                    : English Forced
Language                                 : English
Default                                  : Yes
Forced                                   : Yes

Menu
00:00:00.000                             : en:00:00:00.000
00:10:33.299                             : en:00:10:33.299
00:19:35.925                             : en:00:19:35.925
00:31:33.850                             : en:00:31:33.850
00:39:47.093                             : en:00:39:47.093
00:45:15.004                             : en:00:45:15.004
00:55:42.214                             : en:00:55:42.214
01:04:57.685                             : en:01:04:57.685
01:16:55.152                             : en:01:16:55.152
01:25:28.498                             : en:01:25:28.498
01:32:45.477                             : en:01:32:45.477
01:43:41.298                             : en:01:43:41.298



                                                                                                                                                                                                        
                                                                                                                                                                                                                                                                                                                                                                                                                                                                                                                                                                                                                                                                                                                                                                                                                                                      
f7fb08414da029de2d1cf9daf03b5292.torrent (44.52 KB, 下载次数: 0)

回复

使用道具 举报

小黑屋|西西论坛

本网站所有资源来自网络,如无意中侵犯了您的权益,请发邮件至 [email protected],立即清除相关链接

GMT+8, 2020-4-4 21:43 , Processed in 0.063512 second(s), 23 queries .

Powered by Discuz! X3.2

© 2001-2013 Comsenz Inc.

快速回复 返回顶部 返回列表