西西论坛

 找回密码
 立即注册
搜索

波西·杰克逊与魔兽之海 Percy.Jackson.Sea.Of.Monsters.2013.3D.1080p.B... ...

[复制链接]
电影首发 发表于 2019-10-23 10:31:22 | 显示全部楼层 |阅读模式


帖子完整标题:波西·杰克逊与魔兽之海 Percy.Jackson.Sea.Of.Monsters.2013.3D.1080p.BluRay.x264-GUACAMOLE 8.75GB




◎译  名 波西·杰克逊与魔兽之海 / Percy Jackson & the Olympians: The Sea of Monsters / 波西·杰克逊与海怪 / 波西杰克森:妖魔之海(港 / 台) / 波西杰克逊2
◎片  名 Percy Jackson: Sea of Monsters
◎年  代 2013
◎产  地 美国
◎类  别 动作 / 奇幻 / 冒险
◎语  言 英语
◎上映日期 2013-08-07(美国)
◎IMDb评分  5.8/10 from 103329 users
◎片  长 106分钟
◎导  演 托尔·弗洛伊德桑尔 Thor Freudenthal
◎编  剧 马克·古根海姆 Marc Guggenheim / Rick Riordan
◎主  演 罗根·勒曼 Logan Lerman
       亚历珊德拉·达达里奥 Alexandra Daddario
       布兰登·T·杰克逊 Brandon T. Jackson
       道格拉斯·史密斯 Douglas Smith
       莱文·兰宾 Leven Rambin
       杰克·阿贝尔 Jake Abel
       安东尼·海德 Anthony Head
       斯坦利·图齐 Stanley Tucci


◎标  签 魔幻 | 美国 | 奇幻 | 冒险 | 神话 | 2013 | 小说改编 | 动作

◎简  介  

  电影《波西·杰克逊与魔兽之海》由《小屁孩日记》导演托尔·弗洛伊德桑尔执导,讲述波西·杰克逊在混血人集中营平静的度过七年级后,忽然日子就变的纷乱了起来,原本和同学间的躲避球竞赛,阴错阳差的变成了一场死亡游戏,丑陋的食人族巨无霸也跟着搅和其中,波西无意中发现,他们的家园和族人正遭遇空前的灾难,必须找到“金羊毛”,才能拯救众人,为了解除灾难,波西奋不顾身带着伙伴们共同踏上冒险的旅程,他们要到魔兽之海完成任务,才能取得金羊毛并拯救面临毁灭的混血人集中营,在这趟危机重重的冒险之旅中,他们将会遇到哪些惊人的意外难关?他们真的能够顺利的突破困难,并且让所有族人和希腊众神们幸免于难吗?

◎获奖情况  

  第22届MTV电影奖(2013)
  MTV电影奖 Biggest Summer Teen Bad Ass(提名) 罗根·勒曼

  第13届凤凰城影评人协会奖(2013)
  最佳真人家庭电影(提名)
Video
ID                                       : 1
Format                                   : AVC
Format/Info                              : Advanced Video Codec
MultiView_Count                          : 2
MultiView_Layout                         : Side by Side (left eye first)
Format settings                          : CABAC / 5 Ref Frames
Format settings, CABAC                   : Yes
Format settings, Reference frames        : 5 frames
Codec ID                                 : V_MPEG4/ISO/AVC
Duration                                 : 1 h 46 min
Bit rate                                 : 10.3 Mb/s
Width                                    : 1 920 pixels
Height                                   : 816 pixels
Display aspect ratio                     : 2.35:1
Frame rate mode                          : Constant
Frame rate                               : 23.976 FPS
Color space                              : YUV
Chroma subsampling                       : 4:2:0
Bit depth                                : 8 bits
Scan type                                : Progressive
Bits/(Pixel*Frame)                       : 0.274
Stream size                              : 7.62 GiB (87%)
Writing library                          : x264 core 157 r2969 d4099dd
Encoding settings                        : cabac=1 / ref=5 / deblock=1:-1:-1 / analyse=0x3:0x113 / me=umh / subme=8 / psy=1 / psy_rd=1.00:0.00 / mixed_ref=1 / me_range=16 / chroma_me=1 / trellis=2 / 8x8dct=1 / cqm=0 / deadzone=21,11 / fast_pskip=0 / chroma_qp_offset=-2 / threads=24 / lookahead_threads=4 / sliced_threads=0 / nr=0 / decimate=1 / interlaced=0 / bluray_compat=0 / constrained_intra=0 / bframes=5 / b_pyramid=2 / b_adapt=1 / b_bias=0 / direct=3 / weightb=1 / open_gop=0 / weightp=1 / keyint=250 / keyint_min=23 / scenecut=40 / intra_refresh=0 / rc_lookahead=40 / rc=2pass / mbtree=1 / bitrate=10274 / ratetol=1.0 / qcomp=0.60 / qpmin=0 / qpmax=69 / qpstep=4 / cplxblur=20.0 / qblur=0.5 / ip_ratio=1.40 / aq=1:1.00
Language                                 : English
Default                                  : Yes
Forced                                   : No

Audio
ID                                       : 2
Format                                   : DTS ES
Format/Info                              : Digital Theater Systems
Commercial name                          : DTS-ES Matrix
Codec ID                                 : A_DTS
Duration                                 : 1 h 46 min
Bit rate mode                            : Constant
Bit rate                                 : 1 509 kb/s
Channel(s)                               : 6 channels
Channel(s)_Original                      : 7 channels
Channel layout                           : C L R Ls Rs Cb LFE
Sampling rate                            : 48.0 kHz
Frame rate                               : 93.750 FPS (512 SPF)
Bit depth                                : 24 bits
Compression mode                         : Lossy
Stream size                              : 1.12 GiB (13%)
Language                                 : English
Default                                  : Yes
Forced                                   : No

Menu
00:00:00.000                             : :Kapitel 01
00:04:06.455                             : :Kapitel 02
00:06:44.070                             : :Kapitel 03
00:09:32.697                             : :Kapitel 04
00:13:54.125                             : :Kapitel 05
00:19:18.157                             : :Kapitel 06
00:20:49.039                             : :Kapitel 07
00:22:11.497                             : :Kapitel 08
00:25:31.530                             : :Kapitel 09
00:28:23.827                             : :Kapitel 10
00:30:28.535                             : :Kapitel 11
00:33:20.999                             : :Kapitel 12
00:37:02.262                             : :Kapitel 13
00:39:50.597                             : :Kapitel 14
00:45:17.381                             : :Kapitel 15
00:48:51.178                             : :Kapitel 16
00:52:43.952                             : :Kapitel 17
00:56:36.101                             : :Kapitel 18
01:00:20.867                             : :Kapitel 19
01:03:36.896                             : :Kapitel 20
01:05:41.688                             : :Kapitel 21
01:10:42.697                             : :Kapitel 22
01:12:33.182                             : :Kapitel 23
01:16:53.818                             : :Kapitel 24
01:19:40.442                             : :Kapitel 25
01:23:02.769                             : :Kapitel 26
01:25:46.808                             : :Kapitel 27
01:29:55.265                             : :Kapitel 28
01:32:48.313                             : :Kapitel 29
01:34:26.244                             : :Kapitel 30
01:36:08.972                             : :Kapitel 31
01:37:40.188                             : :Kapitel 32



                                                                                                                                                                                                        
                                                                                                                                                                                                                                                                                                                                                                                                                                                                                                                                                                                                                                                                                                                                                                               ce86e840c87077141c0721acf7ffda1b.torrent (44.54 KB, 下载次数: 0)

回复

使用道具 举报

小黑屋|西西论坛

本网站所有资源来自网络,如无意中侵犯了您的权益,请发邮件至 [email protected],立即清除相关链接

GMT+8, 2020-2-29 00:13 , Processed in 0.059934 second(s), 23 queries .

Powered by Discuz! X3.2

© 2001-2013 Comsenz Inc.

快速回复 返回顶部 返回列表