西西论坛

 找回密码
 立即注册
搜索

[4K-原盘] 美国黑帮/犯罪帝国 American.Gangster.2007.EXTENDED.2160p.BluRay.REMUX....

[复制链接]
电影首发 发表于 2019-10-17 08:53:43 | 显示全部楼层 |阅读模式


帖子完整标题:美国黑帮/犯罪帝国 American.Gangster.2007.EXTENDED.2160p.BluRay.REMUX.HEVC.DTS-X.7.1-FGT 69.27GB




◎译  名 美国黑帮 / 犯罪帝国 / 美国土匪
◎片  名 American Gangster
◎年  代 2007
◎产  地 美国
◎类  别 剧情 / 犯罪
◎语  言 英语
◎上映日期 2007-11-02(美国)
◎IMDb评分  7.8/10 from 371827 users
◎导  演 Ridley Scott
◎编  剧 Steven Zaillian / Mark Jacobson
◎主  演 丹泽尔·华盛顿 Denzel Washington
       罗素·克劳 Russell Crowe
       切瓦特·埃加福特 Chiwetel Ejiofor
       乔什·布洛林 Josh Brolin
       里玛莉·娜妲 Lymari Nadal
       泰德·拉文 Ted Levine
       罗杰·格午埃文·史密斯 Roger Guenveur Smith
       约翰·浩克斯 John Hawkes
       RZA
       尤尔·瓦斯克斯 Yul Vazquez
       Malcolm Goodwin
       露比·迪 Ruby Dee
       Ruben Santiago-Hudson
       卡拉·古奇诺 Carla Gugino
       Skyler Fortgang


◎标  签 黑帮 | 美国 | 犯罪 | DenzelWashington | 美国黑帮 | 美国电影 | RussellCrowe | 2007

◎简  介  

  上世纪70年代,哈莱姆黑人区,弗兰克?卢卡斯(丹泽尔?华盛顿 饰)是黑帮老大约翰逊的司机。约翰逊暴毙后,弗兰克充分利用了这个来之不易的机会,将地下世界的所有权利分配进行了重组,成功上位,接手大佬事业,掌控了毒品交易大权。期间他远赴东南亚金三角走私高纯度海洛因,张罗自己的家族兄弟,集结了一帮为他卖命的手下,一股黑暗势力正在兴起。
  另一边,警察里奇?罗伯茨(卢塞尔?克劳 饰)家庭破裂,与主流社会格格不入,整天以一副邋遢鬼模样流连于街头。他慢慢觉察出毒品圈内的风起云涌,,并展开了秘密调查。
  随着调查的深入,罗伯茨和卢卡斯之间的距离越来越短,两个气质相近,惺惺相惜的男人,不可避免地进行正面对决……

◎获奖情况  

  第80届奥斯卡金像奖(2008)
  最佳女配角(提名) 露比·迪
  最佳艺术指导(提名) 阿瑟·马克斯 / Beth A. Rubino

  第65届金球奖(2008)
  电影类 最佳剧情片(提名)
  电影类 最佳导演(提名) 雷德利·斯科特
  电影类 剧情片最佳男主角(提名) 丹泽尔·华盛顿

  第61届英国电影学院奖(2008)
  电影奖 最佳影片(提名) 雷德利·斯科特 / 布莱恩·格雷泽
  电影奖 最佳原创剧本(提名) 斯蒂文·泽里安
  电影奖 最佳摄影(提名) 哈里斯·萨维德斯
  电影奖 最佳剪辑(提名) 彼得罗·斯卡利亚
  电影奖 最佳原创音乐(提名) 马克·斯特雷滕菲尔德

  第17届MTV电影奖(2008)
  MTV电影奖 最佳男演员(提名) 丹泽尔·华盛顿
  MTV电影奖 最佳反派(提名) 丹泽尔·华盛顿
Video
ID                                       : 1
Format                                   : HEVC
Format/Info                              : High Efficiency Video Coding
HDR format                               : SMPTE ST 2094 App 4, Version 1, HDR10+ Profile B compatible
Codec ID                                 : V_MPEGH/ISO/HEVC
Duration                                 : 2 h 55 min
Bit rate                                 : 50.5 Mb/s
Width                                    : 3 840 pixels
Height                                   : 2 160 pixels
Display aspect ratio                     : 16:9
Frame rate mode                          : Constant
Frame rate                               : 23.976 (24000/1001) FPS
Color space                              : YUV
Chroma subsampling                       : 4:2:0 (Type 2)
Bit depth                                : 10 bits
Bits/(Pixel*Frame)                       : 0.254
Stream size                              : 62.0 GiB (90%)
Title                                    : American.Gangster.2007.EXTENDED.2160p.BluRay.REMUX.HEVC.DTS-X.7.1-FGT
Writing library                          : ATEME Titan File 3.9.0 (4.9.0.0)        
Language                                 : English
Default                                  : No
Forced                                   : No
Color range                              : Limited
Color primaries                          : BT.2020
Transfer characteristics                 : PQ
Matrix coefficients                      : BT.2020 non-constant
Mastering display color primaries        : Display P3
Mastering display luminance              : min: 0.0050 cd/m2, max: 1000 cd/m2
Maximum Content Light Level              : 1179 cd/m2
Maximum Frame-Average Light Level        : 501 cd/m2

Audio
ID                                       : 2
Format                                   : DTS XLL X
Format/Info                              : Digital Theater Systems
Commercial name                          : DTS-HD Master Audio
Codec ID                                 : A_DTS
Duration                                 : 2 h 55 min
Bit rate mode                            : Variable
Bit rate                                 : 5 844 kb/s
Channel(s)                               : 8 channels
Channel(s)_Original                      : Object Based
Channel layout                           : Object Based
Sampling rate                            : 48.0 kHz
Frame rate                               : 93.750 FPS (512 SPF)
Bit depth                                : 24 bits
Stream size                              : 7.18 GiB (10%)
Title                                    : American.Gangster.2007.EXTENDED.2160p.BluRay.REMUX.HEVC.DTS-X.7.1-FGT
Language                                 : English
Default                                  : Yes
Forced                                   : No

Text #1
ID                                       : 3
Format                                   : UTF-8
Codec ID                                 : S_TEXT/UTF8
Codec ID/Info                            : UTF-8 Plain Text
Duration                                 : 2 h 46 min
Bit rate                                 : 69 b/s
Count of elements                        : 2627
Stream size                              : 84.0 KiB (0%)
Title                                    : English-SRT
Language                                 : English
Default                                  : Yes
Forced                                   : No

Text #2
ID                                       : 4
Format                                   : PGS
Muxing mode                              : zlib
Codec ID                                 : S_HDMV/PGS
Codec ID/Info                            : Picture based subtitle format used on BDs/HD-DVDs
Duration                                 : 2 h 47 min
Bit rate                                 : 41.2 kb/s
Count of elements                        : 5600
Stream size                              : 49.4 MiB (0%)
Title                                    : English-PGS
Language                                 : English
Default                                  : No
Forced                                   : No

Text #3
ID                                       : 5
Format                                   : PGS
Muxing mode                              : zlib
Codec ID                                 : S_HDMV/PGS
Codec ID/Info                            : Picture based subtitle format used on BDs/HD-DVDs
Duration                                 : 2 h 46 min
Bit rate                                 : 34.0 kb/s
Count of elements                        : 4562
Stream size                              : 40.6 MiB (0%)
Title                                    : Spanish-PGS
Language                                 : Spanish
Default                                  : No
Forced                                   : No

Text #4
ID                                       : 6
Format                                   : PGS
Muxing mode                              : zlib
Codec ID                                 : S_HDMV/PGS
Codec ID/Info                            : Picture based subtitle format used on BDs/HD-DVDs
Duration                                 : 2 h 46 min
Bit rate                                 : 33.6 kb/s
Count of elements                        : 4552
Stream size                              : 40.1 MiB (0%)
Title                                    : French-PGS
Language                                 : French
Default                                  : No
Forced                                   : No

Menu
00:00:00.000                             : en:Chapter 01
00:06:48.449                             : en:Chapter 02
00:14:07.263                             : en:Chapter 03
00:25:42.707                             : en:Chapter 04
00:32:19.938                             : en:Chapter 05
00:37:33.584                             : en:Chapter 06
00:43:48.876                             : en:Chapter 07
00:51:25.457                             : en:Chapter 08
00:57:21.521                             : en:Chapter 09
01:15:30.651                             : en:Chapter 10
01:20:53.181                             : en:Chapter 11
01:29:01.252                             : en:Chapter 12
01:37:22.169                             : en:Chapter 13
01:44:01.610                             : en:Chapter 14
01:55:33.885                             : en:Chapter 15
02:04:59.116                             : en:Chapter 16
02:13:00.639                             : en:Chapter 17
02:20:08.525                             : en:Chapter 18
02:31:52.603                             : en:Chapter 19
02:48:01.446                             : en:Chapter 20



                                                                                                                                                                                                        
                                                                                                                                                                                                                                                                                                                                                                                                                                                                                                                                                                                                                                                                                                                                                                                                                                                       248387f115c766bd5323d463e6738785.torrent (173.74 KB, 下载次数: 0)

回复

使用道具 举报

小黑屋|西西论坛

本网站所有资源来自网络,如无意中侵犯了您的权益,请发邮件至 [email protected],立即清除相关链接

GMT+8, 2020-5-30 14:37 , Processed in 0.062824 second(s), 23 queries .

Powered by Discuz! X3.2

© 2001-2013 Comsenz Inc.

快速回复 返回顶部 返回列表