西西论坛

 找回密码
 立即注册
搜索

[4K-原盘] 优步危机/斯图伯 Stuber.2019.2160p.BluRay.REMUX.HEVC.DTS-HD.MA.TrueHD.7...

[复制链接]
电影首发 发表于 2019-10-7 08:07:34 | 显示全部楼层 |阅读模式
帖子完整标题:优步危机/斯图伯 Stuber.2019.2160p.BluRay.REMUX.HEVC.DTS-HD.MA.TrueHD.7.1.Atmos-FGT 52.45GB




◎译  名 优步危机 / 斯图伯 / 狂玩嘢时速(港) / 玩命优步(台)
◎片  名 Stuber
◎年  代 2019
◎产  地 美国
◎类  别 喜剧 / 动作
◎语  言 英语
◎上映日期 2019-07-12(美国)
◎片  长 105分钟
◎导  演 迈克尔·道斯 Michael Dowse
◎编  剧 特里珀·克兰西 Tripper Clancy
◎主  演 戴夫·巴蒂斯塔 Dave Bautista
       库梅尔·南贾尼 Kumail Nanjiani
       伊科·乌艾斯 Iko Uwais
       贝蒂·吉尔平 Betty Gilpin
       米拉·索维诺 Mira Sorvino
       娜塔丽·莫瑞丝 Natalie Morales
       约书亚·米克尔 Joshua Mikel
       阿明·约瑟夫 Amin Joseph
       斯科特·劳伦斯 Scott Lawrence
       克里斯汀·霍恩 Christine Horn
       汉斯·马雷罗 Hans Marrero
       雷内?莫兰 Rene Moran


◎标  签 喜剧 | 动作 | 美国 | 2019 | 犯罪 | 搞笑 | 二十世纪福克斯 | 家庭

◎简  介  

  南贾尼饰演一名性格温和的Uber司机,某天载的乘客是一位头发斑白的警察,他正在追捕一名残忍的杀手。司机发现自己面临艰巨考验,他必须要保持冷静,保证服务质量以获得五星好评。
Video
ID                                       : 1
Format                                   : HEVC
Format/Info                              : High Efficiency Video Coding
HDR format                               : SMPTE ST 2094 App 4, Version 1, HDR10+ Profile A compatible
Codec ID                                 : V_MPEGH/ISO/HEVC
Duration                                 : 1 h 33 min
Bit rate                                 : 66.3 Mb/s
Width                                    : 3 840 pixels
Height                                   : 2 160 pixels
Display aspect ratio                     : 16:9
Frame rate mode                          : Constant
Frame rate                               : 23.976 (24000/1001) FPS
Color space                              : YUV
Chroma subsampling                       : 4:2:0 (Type 2)
Bit depth                                : 10 bits
Bits/(Pixel*Frame)                       : 0.333
Stream size                              : 43.3 GiB (82%)
Title                                    : Stuber.2019.2160p.BluRay.REMUX.HEVC.DTS-HD.MA.TrueHD.7.1.Atmos-FGT
Language                                 : English
Default                                  : No
Forced                                   : No
Color range                              : Limited
Color primaries                          : BT.2020
Transfer characteristics                 : PQ
Matrix coefficients                      : BT.2020 non-constant
Mastering display color primaries        : Display P3
Mastering display luminance              : min: 0.0050 cd/m2, max: 1000 cd/m2

Audio #1
ID                                       : 2
Format                                   : MLP FBA 16-ch
Format/Info                              : Meridian Lossless Packing FBA with 16-channel presentation
Commercial name                          : Dolby TrueHD with Dolby Atmos
Codec ID                                 : A_TRUEHD
Duration                                 : 1 h 33 min
Bit rate mode                            : Variable
Bit rate                                 : 3 937 kb/s
Maximum bit rate                         : 6 696 kb/s
Channel(s)                               : 8 channels
Channel layout                           : L R C LFE Ls Rs Lb Rb
Sampling rate                            : 48.0 kHz
Frame rate                               : 1 200.000 FPS (40 SPF)
Compression mode                         : Lossless
Stream size                              : 2.57 GiB (5%)
Title                                    : Stuber.2019.2160p.BluRay.REMUX.HEVC.DTS-HD.MA.TrueHD.7.1.Atmos-FGT
Language                                 : English
Default                                  : Yes
Forced                                   : No
Number of dynamic objects                : 13
Bed channel count                        : 1 channel
Bed channel configuration                : LFE

Audio #2
ID                                       : 3
Format                                   : DTS XLL
Format/Info                              : Digital Theater Systems
Commercial name                          : DTS-HD Master Audio
Codec ID                                 : A_DTS
Duration                                 : 1 h 33 min
Bit rate mode                            : Variable
Bit rate                                 : 3 908 kb/s
Channel(s)                               : 8 channels
Channel layout                           : C L R LFE Lb Rb Lss Rss
Sampling rate                            : 48.0 kHz
Frame rate                               : 93.750 FPS (512 SPF)
Bit depth                                : 24 bits
Compression mode                         : Lossless
Stream size                              : 2.55 GiB (5%)
Title                                    : Stuber.2019.2160p.BluRay.REMUX.HEVC.DTS-HD.MA.TrueHD.7.1.Atmos-FGT
Language                                 : English
Default                                  : No
Forced                                   : No

Audio #3
ID                                       : 4
Format                                   : AC-3
Format/Info                              : Audio Coding 3
Commercial name                          : Dolby Digital
Codec ID                                 : A_AC3
Duration                                 : 1 h 33 min
Bit rate mode                            : Constant
Bit rate                                 : 640 kb/s
Channel(s)                               : 6 channels
Channel layout                           : L R C LFE Ls Rs
Sampling rate                            : 48.0 kHz
Frame rate                               : 31.250 FPS (1536 SPF)
Bit depth                                : 16 bits
Compression mode                         : Lossy
Stream size                              : 428 MiB (1%)
Title                                    : Stuber.2019.2160p.BluRay.REMUX.HEVC.DTS-HD.MA.TrueHD.7.1.Atmos-FGT
Language                                 : English
Service kind                             : Complete Main
Default                                  : No
Forced                                   : No

Audio #4
ID                                       : 5
Format                                   : AC-3
Format/Info                              : Audio Coding 3
Commercial name                          : Dolby Digital
Codec ID                                 : A_AC3
Duration                                 : 1 h 33 min
Bit rate mode                            : Constant
Bit rate                                 : 448 kb/s
Channel(s)                               : 6 channels
Channel layout                           : L R C LFE Ls Rs
Sampling rate                            : 48.0 kHz
Frame rate                               : 31.250 FPS (1536 SPF)
Bit depth                                : 16 bits
Compression mode                         : Lossy
Stream size                              : 299 MiB (1%)
Title                                    : Stuber.2019.2160p.BluRay.REMUX.HEVC.DTS-HD.MA.TrueHD.7.1.Atmos-FGT
Language                                 : English
Service kind                             : Complete Main
Default                                  : No
Forced                                   : No

Audio #5
ID                                       : 6
Format                                   : AC-3
Format/Info                              : Audio Coding 3
Commercial name                          : Dolby Digital
Codec ID                                 : A_AC3
Duration                                 : 1 h 33 min
Bit rate mode                            : Constant
Bit rate                                 : 448 kb/s
Channel(s)                               : 6 channels
Channel layout                           : L R C LFE Ls Rs
Sampling rate                            : 48.0 kHz
Frame rate                               : 31.250 FPS (1536 SPF)
Bit depth                                : 16 bits
Compression mode                         : Lossy
Stream size                              : 299 MiB (1%)
Title                                    : Stuber.2019.2160p.BluRay.REMUX.HEVC.DTS-HD.MA.TrueHD.7.1.Atmos-FGT
Language                                 : Spanish
Service kind                             : Complete Main
Default                                  : No
Forced                                   : No

Audio #6
ID                                       : 7
Format                                   : DTS
Format/Info                              : Digital Theater Systems
Codec ID                                 : A_DTS
Duration                                 : 1 h 33 min
Bit rate mode                            : Constant
Bit rate                                 : 768 kb/s
Channel(s)                               : 6 channels
Channel layout                           : C L R Ls Rs LFE
Sampling rate                            : 48.0 kHz
Frame rate                               : 93.750 FPS (512 SPF)
Bit depth                                : 24 bits
Compression mode                         : Lossy
Stream size                              : 513 MiB (1%)
Title                                    : Stuber.2019.2160p.BluRay.REMUX.HEVC.DTS-HD.MA.TrueHD.7.1.Atmos-FGT
Language                                 : French
Default                                  : No
Forced                                   : No

Audio #7
ID                                       : 8
Format                                   : DTS
Format/Info                              : Digital Theater Systems
Codec ID                                 : A_DTS
Duration                                 : 1 h 33 min
Bit rate mode                            : Constant
Bit rate                                 : 768 kb/s
Channel(s)                               : 6 channels
Channel layout                           : C L R Ls Rs LFE
Sampling rate                            : 48.0 kHz
Frame rate                               : 93.750 FPS (512 SPF)
Bit depth                                : 24 bits
Compression mode                         : Lossy
Stream size                              : 513 MiB (1%)
Title                                    : Stuber.2019.2160p.BluRay.REMUX.HEVC.DTS-HD.MA.TrueHD.7.1.Atmos-FGT
Language                                 : Spanish
Default                                  : No
Forced                                   : No

Audio #8
ID                                       : 9
Format                                   : DTS
Format/Info                              : Digital Theater Systems
Codec ID                                 : A_DTS
Duration                                 : 1 h 33 min
Bit rate mode                            : Constant
Bit rate                                 : 768 kb/s
Channel(s)                               : 6 channels
Channel layout                           : C L R Ls Rs LFE
Sampling rate                            : 48.0 kHz
Frame rate                               : 93.750 FPS (512 SPF)
Bit depth                                : 24 bits
Compression mode                         : Lossy
Stream size                              : 513 MiB (1%)
Title                                    : Stuber.2019.2160p.BluRay.REMUX.HEVC.DTS-HD.MA.TrueHD.7.1.Atmos-FGT
Language                                 : German
Default                                  : No
Forced                                   : No

Audio #9
ID                                       : 10
Format                                   : DTS
Format/Info                              : Digital Theater Systems
Codec ID                                 : A_DTS
Duration                                 : 1 h 33 min
Bit rate mode                            : Constant
Bit rate                                 : 768 kb/s
Channel(s)                               : 6 channels
Channel layout                           : C L R Ls Rs LFE
Sampling rate                            : 48.0 kHz
Frame rate                               : 93.750 FPS (512 SPF)
Bit depth                                : 24 bits
Compression mode                         : Lossy
Stream size                              : 513 MiB (1%)
Title                                    : Stuber.2019.2160p.BluRay.REMUX.HEVC.DTS-HD.MA.TrueHD.7.1.Atmos-FGT
Language                                 : Italian
Default                                  : No
Forced                                   : No

Audio #10
ID                                       : 11
Format                                   : AC-3
Format/Info                              : Audio Coding 3
Commercial name                          : Dolby Digital
Codec ID                                 : A_AC3
Duration                                 : 1 h 33 min
Bit rate mode                            : Constant
Bit rate                                 : 448 kb/s
Channel(s)                               : 6 channels
Channel layout                           : L R C LFE Ls Rs
Sampling rate                            : 48.0 kHz
Frame rate                               : 31.250 FPS (1536 SPF)
Bit depth                                : 16 bits
Compression mode                         : Lossy
Stream size                              : 299 MiB (1%)
Title                                    : Stuber.2019.2160p.BluRay.REMUX.HEVC.DTS-HD.MA.TrueHD.7.1.Atmos-FGT
Language                                 : Czech
Service kind                             : Complete Main
Default                                  : No
Forced                                   : No

Menu
00:00:00.000                             : en:Chapter 01
00:05:52.643                             : en:Chapter 02
00:09:56.846                             : en:Chapter 03
00:14:14.854                             : en:Chapter 04
00:17:30.591                             : en:Chapter 05
00:19:46.059                             : en:Chapter 06
00:22:40.275                             : en:Chapter 07
00:27:33.401                             : en:Chapter 08
00:31:30.680                             : en:Chapter 09
00:33:18.955                             : en:Chapter 10
00:35:39.887                             : en:Chapter 11
00:40:13.035                             : en:Chapter 12
00:45:05.202                             : en:Chapter 13
00:49:10.113                             : en:Chapter 14
00:52:36.987                             : en:Chapter 15
00:56:46.111                             : en:Chapter 16
01:01:54.001                             : en:Chapter 17
01:05:43.397                             : en:Chapter 18
01:08:37.196                             : en:Chapter 19
01:13:31.156                             : en:Chapter 20
01:16:44.516                             : en:Chapter 21
01:19:07.200                             : en:Chapter 22
01:23:54.779                             : en:Chapter 23
01:27:49.597                             : en:Chapter 24



                                                                                                                                                                                                        
                                                                                                                                                                                                                                                                                                                                                                                                                                                                                                                                                                                                                                                                                                                                                                                                                                                       ed2f0d3bdfb38e213522ea0a10911a04.torrent (131.69 KB, 下载次数: 0)

回复

使用道具 举报

小黑屋|西西论坛

本网站所有资源来自网络,如无意中侵犯了您的权益,请发邮件至 [email protected],立即清除相关链接

GMT+8, 2020-8-10 01:52 , Processed in 0.122854 second(s), 23 queries .

Powered by Discuz! X3.2

© 2001-2013 Comsenz Inc.

快速回复 返回顶部 返回列表