西西论坛

 找回密码
 立即注册
搜索

[4K-原盘] 潘神的迷宫 Pans.Labyrinth.2006.SPANISH.2160p.BluRay.REMUX.HEVC.DTS-HD.MA...

[复制链接]
电影首发 发表于 2019-10-4 19:56:14 | 显示全部楼层 |阅读模式


帖子完整标题:潘神的迷宫 Pans.Labyrinth.2006.SPANISH.2160p.BluRay.REMUX.HEVC.DTS-HD.MA.7.1-FGT 53.65GB




◎译  名 潘神的迷宫 / Pan's Labyrinth / 奇幻迷宫 / 潘的迷宫 / 羊男的迷宫 / 魔间迷宫
◎片  名 El laberinto del fauno
◎年  代 2006
◎产  地 西班牙 / 墨西哥 / 美国
◎类  别 剧情 / 悬疑 / 战争 / 奇幻
◎语  言 西班牙语
◎上映日期 2006-10-11(西班牙)
◎IMDb评分  8.2/10 from 580358 users
◎片  长 118分钟(英国)
◎导  演 吉尔莫·德尔·托罗 Guillermo del Toro
◎编  剧 吉尔莫·德尔·托罗 Guillermo del Toro
◎主  演 伊万娜·巴克罗 Ivana Baquero
       塞吉·洛佩兹 Sergi López
       玛丽贝尔· 瓦度 Maribel Verdú
       道格·琼斯 Doug Jones
       艾妮安娜·姬儿 Ariadna Gil


◎标  签 魔幻 | 西班牙 | 奇幻 | 童话 | 潘神的迷宫 | 战争 | 2006 | 电影

◎简  介  

  12岁女孩子奥菲丽娅(伊万娜?巴克尔洛 饰)有一个凶暴的法西斯军官继父维达(塞吉?洛佩兹 饰),维达的任务就是镇压反抗者,研究各种刑具来折磨残害被抓来的异见人士,奥菲丽娅每天都目睹让人不愉快的事件。眼看着冷酷的继父和其党羽每日作恶还以此为乐,母亲又身怀六甲患病在床,被孤独感和目睹暴行的痛苦困扰的奥菲丽娅开始沉浸在自己的幻想中聊以自慰。
  一天,奥菲丽娅遇到了迷宫的守护者,潘神(道格?琼斯 饰)。潘神告诉她,她其实是奇幻王国失踪的公主,要想恢复身份,必须通过三个危险的考验。

◎获奖情况  

  第79届奥斯卡金像奖(2007)
  最佳原创剧本(提名) 吉尔莫·德尔·托罗
  最佳外语片(提名) 吉尔莫·德尔·托罗
  最佳摄影 吉列尔莫·纳瓦罗
  最佳艺术指导 尤吉尼奥·卡巴莱罗 / Pilar Revuelta
  最佳化妆 David Martí / Montse Ribé
  最佳原创配乐(提名) 哈维尔·纳瓦雷特

  第59届戛纳电影节(2006)
  主竞赛单元 金棕榈奖(提名) 吉尔莫·德尔·托罗

  第64届金球奖(2007)
  电影类 最佳外语片(提名)
Video
ID                                       : 1
Format                                   : HEVC
Format/Info                              : High Efficiency Video Coding
HDR format                               : SMPTE ST 2086, HDR10 compatible
Codec ID                                 : V_MPEGH/ISO/HEVC
Duration                                 : 1 h 59 min
Bit rate                                 : 55.6 Mb/s
Width                                    : 3 840 pixels
Height                                   : 2 160 pixels
Display aspect ratio                     : 16:9
Frame rate mode                          : Constant
Frame rate                               : 23.976 (24000/1001) FPS
Color space                              : YUV
Chroma subsampling                       : 4:2:0 (Type 2)
Bit depth                                : 10 bits
Bits/(Pixel*Frame)                       : 0.279
Stream size                              : 46.3 GiB (86%)
Title                                    : Pans.Labyrinth.2006.SPANISH.2160p.BluRay.REMUX.HEVC.DTS-HD.MA.7.1-FGT
Writing library                          : ATEME Titan File 3.9.0 (4.9.0.0)        
Language                                 : English
Default                                  : No
Forced                                   : No
Color range                              : Limited
Color primaries                          : BT.2020
Transfer characteristics                 : PQ
Matrix coefficients                      : BT.2020 non-constant
Mastering display color primaries        : Display P3
Mastering display luminance              : min: 0.0050 cd/m2, max: 4000 cd/m2
Maximum Content Light Level              : 761 cd/m2
Maximum Frame-Average Light Level        : 46 cd/m2

Audio #1
ID                                       : 2
Format                                   : DTS XLL
Format/Info                              : Digital Theater Systems
Commercial name                          : DTS-HD Master Audio
Codec ID                                 : A_DTS
Duration                                 : 1 h 59 min
Bit rate mode                            : Variable
Bit rate                                 : 5 175 kb/s
Channel(s)                               : 8 channels
Channel layout                           : C L R LFE Lb Rb Lss Rss
Sampling rate                            : 48.0 kHz
Frame rate                               : 93.750 FPS (512 SPF)
Bit depth                                : 24 bits
Compression mode                         : Lossless
Stream size                              : 4.31 GiB (8%)
Title                                    : Pans.Labyrinth.2006.SPANISH.2160p.BluRay.REMUX.HEVC.DTS-HD.MA.7.1-FGT
Language                                 : Spanish
Default                                  : Yes
Forced                                   : No

Audio #2
ID                                       : 3
Format                                   : DTS XLL
Format/Info                              : Digital Theater Systems
Commercial name                          : DTS-HD Master Audio
Codec ID                                 : A_DTS
Duration                                 : 1 h 59 min
Bit rate mode                            : Variable
Bit rate                                 : 3 505 kb/s
Channel(s)                               : 6 channels
Channel layout                           : C L R Ls Rs LFE
Sampling rate                            : 48.0 kHz
Frame rate                               : 93.750 FPS (512 SPF)
Bit depth                                : 24 bits
Compression mode                         : Lossless
Stream size                              : 2.92 GiB (5%)
Title                                    : Pans.Labyrinth.2006.SPANISH.2160p.BluRay.REMUX.HEVC.DTS-HD.MA.7.1-FGT
Language                                 : Spanish
Default                                  : No
Forced                                   : No

Audio #3
ID                                       : 4
Format                                   : AC-3
Format/Info                              : Audio Coding 3
Commercial name                          : Dolby Digital
Codec ID                                 : A_AC3
Duration                                 : 1 h 59 min
Bit rate mode                            : Constant
Bit rate                                 : 192 kb/s
Channel(s)                               : 2 channels
Channel layout                           : L R
Sampling rate                            : 48.0 kHz
Frame rate                               : 31.250 FPS (1536 SPF)
Bit depth                                : 16 bits
Compression mode                         : Lossy
Stream size                              : 164 MiB (0%)
Title                                    : Pans.Labyrinth.2006.SPANISH.2160p.BluRay.REMUX.HEVC.DTS-HD.MA.7.1-FGT
Language                                 : English
Service kind                             : Complete Main
Default                                  : No
Forced                                   : No

Text #1
ID                                       : 5
Format                                   : UTF-8
Codec ID                                 : S_TEXT/UTF8
Codec ID/Info                            : UTF-8 Plain Text
Duration                                 : 1 h 51 min
Bit rate                                 : 28 b/s
Count of elements                        : 886
Stream size                              : 23.2 KiB (0%)
Title                                    : English-SRT
Language                                 : English
Default                                  : Yes
Forced                                   : No

Text #2
ID                                       : 6
Format                                   : PGS
Muxing mode                              : zlib
Codec ID                                 : S_HDMV/PGS
Codec ID/Info                            : Picture based subtitle format used on BDs/HD-DVDs
Duration                                 : 1 h 51 min
Bit rate                                 : 15.8 kb/s
Count of elements                        : 1774
Stream size                              : 12.6 MiB (0%)
Title                                    : English-PGS
Language                                 : English
Default                                  : No
Forced                                   : No

Text #3
ID                                       : 7
Format                                   : PGS
Muxing mode                              : zlib
Codec ID                                 : S_HDMV/PGS
Codec ID/Info                            : Picture based subtitle format used on BDs/HD-DVDs
Duration                                 : 1 h 57 min
Bit rate                                 : 16.6 kb/s
Count of elements                        : 1768
Stream size                              : 13.9 MiB (0%)
Title                                    : Spanish-PGS
Language                                 : Spanish
Default                                  : No
Forced                                   : No

Menu
00:00:00.000                             : en:Chapter 01
00:05:51.476                             : en:Chapter 02
00:11:30.398                             : en:Chapter 03
00:14:52.808                             : en:Chapter 04
00:18:10.214                             : en:Chapter 05
00:24:52.449                             : en:Chapter 06
00:31:12.996                             : en:Chapter 07
00:38:34.061                             : en:Chapter 08
00:42:56.949                             : en:Chapter 09
00:46:17.399                             : en:Chapter 10
00:48:16.810                             : en:Chapter 11
00:55:38.626                             : en:Chapter 12
01:02:36.419                             : en:Chapter 13
01:07:57.656                             : en:Chapter 14
01:12:54.661                             : en:Chapter 15
01:16:45.017                             : en:Chapter 16
01:21:44.190                             : en:Chapter 17
01:25:12.398                             : en:Chapter 18
01:31:28.566                             : en:Chapter 19
01:36:28.240                             : en:Chapter 20
01:43:04.636                             : en:Chapter 21
01:52:19.733                             : en:Chapter 22



                                                                                                                                                                                                        
                                                                                                                                                                                                                                                                                                                                                                                                                                                                                                                                                                                                                                                                                                                                                                                                                                                       252ef44f03d9e53221ca21eb5e4c84f2.torrent (134.7 KB, 下载次数: 0)

回复

使用道具 举报

小黑屋|西西论坛

本网站所有资源来自网络,如无意中侵犯了您的权益,请发邮件至 aa635[email protected],立即清除相关链接

GMT+8, 2020-5-30 15:04 , Processed in 0.078174 second(s), 23 queries .

Powered by Discuz! X3.2

© 2001-2013 Comsenz Inc.

快速回复 返回顶部 返回列表