西西论坛

 找回密码
 立即注册
搜索

[BD-4K] 海底总动员 Finding.Nemo.2003.2160p.BluRay.x264.8bit.SDR.TrueHD.7.1.Atmos...

[复制链接]
电影首发 发表于 2019-9-10 08:31:07 | 显示全部楼层 |阅读模式
帖子完整标题:海底总动员 Finding.Nemo.2003.2160p.BluRay.x264.8bit.SDR.TrueHD.7.1.Atmos-SWTYBLZ 24.55GB




◎译  名 海底总动员 / Finding Nemo 3D / 寻找尼莫 / 海底奇兵 / 海底总动员3D
◎片  名 Finding Nemo
◎年  代 2003
◎产  地 美国 / 澳大利亚
◎类  别 喜剧 / 动画 / 家庭 / 冒险
◎语  言 英语
◎上映日期 2003-05-30(美国) / 2003-07-30(中国大陆) / 2012-09-14(美国)
◎IMDb评分  8.1/10 from 880119 users
◎片  长 100 分钟
◎导  演 安德鲁·斯坦顿 Andrew Stanton / 李·昂克里奇 Lee Unkrich
◎编  剧 安德鲁·斯坦顿 Andrew Stanton / 鲍勃·彼德森 Bob Peterson / 大卫·雷诺兹 David Reynolds
◎主  演 艾伯特·布鲁克斯 Albert Brooks
       艾伦·德杰尼勒斯 Ellen DeGeneres
       亚历山大·古尔德 Alexander Gould
       威廉·达福 Willem Dafoe
       布拉德·加内特 Brad Garrett
       艾莉森·珍妮 Allison Janney
       Austin Pendleton
       斯蒂芬·鲁特 Stephen Root
       杰弗里·拉什 Geoffrey Rush
       伊丽莎白·帕金斯 Elizabeth Perkins


◎标  签 动画 | 迪斯尼 | 美国 | 亲情 | 喜剧 | 经典 | 2003 | pixar

◎简  介  

  在澳洲大堡礁的深海中,小丑鱼爸爸玛林和儿子尼莫简单幸福的生活着,可是爸爸做事常常畏首畏尾,是个胆小鬼,尼莫觉得爸爸很不勇敢,甚至有点看不起自己的爸爸。小尼莫却天不怕地不怕,跟同伴们去水面玩耍的时候,竟然被渔网捞了起来,辗转被卖到一家牙医诊所。玛林对儿子的生死未卜感到十分的担忧,就算平时不能大胆行事,为了儿子也要勇敢豁出去了。可是在路上遇到了很多艰难与恐惧,令他十分胆怯。幸好他遇到了好心的多瑞,一路与他作伴。父子俩都遇到了很多热心的帮助,最终都能重逢,玛林也从此成为儿子以及大家心中的英雄。

◎获奖情况  

  第76届奥斯卡金像奖(2004)
  最佳原创剧本(提名) 安德鲁·斯坦顿
  最佳动画长片 安德鲁·斯坦顿
  最佳音效剪辑(提名) 嘉里·瑞德斯托姆 / 迈克尔·席维斯
  最佳原创配乐(提名) 托马斯·纽曼

  第61届金球奖(2004)
  电影类 最佳音乐/喜剧片(提名)

  第57届英国电影学院奖(2004)
  电影奖 最佳原创剧本(提名) 大卫·雷诺兹 / 安德鲁·斯坦顿 / 鲍勃·彼德森

  第31届动画安妮奖(2004)
  最佳动画长片
  最佳导演 安德鲁·斯坦顿 / 李·昂克里奇
  最佳编剧 大卫·雷诺兹 / 安德鲁·斯坦顿 / 鲍勃·彼德森
  最佳配音 艾伦·德杰尼勒斯
  最佳配乐 托马斯·纽曼
  最佳艺术指导 拉夫·埃格尔斯顿
  最佳动画角色 道格·斯威特兰德
  最佳动画角色(提名) Gini Santos
  最佳角色设计 Ricky Nierva
  最佳动画效果 Martin Nguyen
  最佳动画效果(提名) Martin Nguyen / Justin Paul Ritter / Justin Paul Ritter

  第4届美国电影学会奖(2003)
  年度佳片
Video
ID                                       : 1
Format                                   : AVC
Format/Info                              : Advanced Video Codec
Format settings                          : CABAC / 5 Ref Frames
Format settings, CABAC                   : Yes
Format settings, Reference frames        : 5 frames
Codec ID                                 : V_MPEG4/ISO/AVC
Duration                                 : 1 h 40 min
Bit rate                                 : 27.1 Mb/s
Width                                    : 3 840 pixels
Height                                   : 2 160 pixels
Display aspect ratio                     : 16:9
Frame rate mode                          : Constant
Frame rate                               : 23.976 (24000/1001) FPS
Color space                              : YUV
Chroma subsampling                       : 4:2:0
Bit depth                                : 8 bits
Scan type                                : Progressive
Bits/(Pixel*Frame)                       : 0.136
Stream size                              : 19.1 GiB (78%)
Title                                    : Finding.Nemo.2003.2160p.BluRay.x264.8bit.SDR.TrueHD.7.1.Atmos-SWTYBLZ
Writing library                          : x264 core 157 r2935 545de2f
Encoding settings                        : cabac=1 / ref=5 / deblock=1:1:1 / analyse=0x3:0x113 / me=umh / subme=10 / psy=1 / psy_rd=0.40:0.00 / mixed_ref=1 / me_range=48 / chroma_me=1 / trellis=2 / 8x8dct=1 / cqm=0 / deadzone=21,11 / fast_pskip=1 / chroma_qp_offset=-2 / threads=48 / lookahead_threads=5 / sliced_threads=0 / nr=0 / decimate=0 / interlaced=0 / bluray_compat=0 / constrained_intra=0 / bframes=5 / b_pyramid=2 / b_adapt=2 / b_bias=0 / direct=3 / weightb=1 / open_gop=0 / weightp=2 / keyint=250 / keyint_min=23 / scenecut=40 / intra_refresh=0 / rc_lookahead=50 / rc=crf / mbtree=1 / crf=16.0 / qcomp=0.60 / qpmin=0 / qpmax=69 / qpstep=4 / ip_ratio=1.40 / aq=1:0.60
Default                                  : Yes
Forced                                   : No

Audio #1
ID                                       : 2
Format                                   : MLP FBA 16-ch
Format/Info                              : Meridian Lossless Packing FBA with 16-channel presentation
Commercial name                          : Dolby TrueHD with Dolby Atmos
Codec ID                                 : A_TRUEHD
Duration                                 : 1 h 40 min
Bit rate mode                            : Variable
Bit rate                                 : 6 896 kb/s
Maximum bit rate                         : 9 480 kb/s
Channel(s)                               : 8 channels
Channel layout                           : L R C LFE Ls Rs Lb Rb
Sampling rate                            : 48.0 kHz
Frame rate                               : 1 200.000 FPS (40 SPF)
Compression mode                         : Lossless
Stream size                              : 4.86 GiB (20%)
Title                                    : Finding.Nemo.2003.2160p.BluRay.x264.8bit.SDR.TrueHD.7.1.Atmos-SWTYBLZ
Language                                 : English
Default                                  : Yes
Forced                                   : No
Number of dynamic objects                : 13
Bed channel count                        : 1 channel
Bed channel configuration                : LFE

Audio #2
ID                                       : 3
Format                                   : AC-3
Format/Info                              : Audio Coding 3
Commercial name                          : Dolby Digital
Codec ID                                 : A_AC3
Duration                                 : 1 h 40 min
Bit rate mode                            : Constant
Bit rate                                 : 640 kb/s
Channel(s)                               : 6 channels
Channel layout                           : L R C LFE Ls Rs
Sampling rate                            : 48.0 kHz
Frame rate                               : 31.250 FPS (1536 SPF)
Bit depth                                : 16 bits
Compression mode                         : Lossy
Stream size                              : 462 MiB (2%)
Title                                    : Finding.Nemo.2003.2160p.BluRay.x264.8bit.SDR.TrueHD.7.1.Atmos-SWTYBLZ
Language                                 : English
Service kind                             : Complete Main
Default                                  : No
Forced                                   : No

Text #1
ID                                       : 4
Format                                   : UTF-8
Codec ID                                 : S_TEXT/UTF8
Codec ID/Info                            : UTF-8 Plain Text
Duration                                 : 1 h 32 min
Bit rate                                 : 69 b/s
Count of elements                        : 1521
Stream size                              : 47.2 KiB (0%)
Title                                    : English-SRT
Language                                 : English
Default                                  : Yes
Forced                                   : No

Text #2
ID                                       : 5
Format                                   : PGS
Muxing mode                              : zlib
Codec ID                                 : S_HDMV/PGS
Codec ID/Info                            : Picture based subtitle format used on BDs/HD-DVDs
Duration                                 : 1 h 32 min
Bit rate                                 : 44.8 kb/s
Count of elements                        : 3150
Stream size                              : 29.7 MiB (0%)
Title                                    : English-PGS
Language                                 : English
Default                                  : No
Forced                                   : No

Text #3
ID                                       : 6
Format                                   : PGS
Muxing mode                              : zlib
Codec ID                                 : S_HDMV/PGS
Codec ID/Info                            : Picture based subtitle format used on BDs/HD-DVDs
Duration                                 : 1 h 32 min
Bit rate                                 : 46.6 kb/s
Count of elements                        : 3272
Stream size                              : 30.9 MiB (0%)
Title                                    : French-PGS
Language                                 : French
Default                                  : No
Forced                                   : No

Text #4
ID                                       : 7
Format                                   : PGS
Muxing mode                              : zlib
Codec ID                                 : S_HDMV/PGS
Codec ID/Info                            : Picture based subtitle format used on BDs/HD-DVDs
Duration                                 : 1 h 32 min
Bit rate                                 : 41.9 kb/s
Count of elements                        : 3070
Stream size                              : 27.7 MiB (0%)
Title                                    : Spanish-PGS
Language                                 : Spanish
Default                                  : No
Forced                                   : No

Text #5
ID                                       : 8
Format                                   : PGS
Muxing mode                              : zlib
Codec ID                                 : S_HDMV/PGS
Codec ID/Info                            : Picture based subtitle format used on BDs/HD-DVDs
Duration                                 : 1 h 32 min
Bit rate                                 : 30.4 kb/s
Count of elements                        : 3064
Stream size                              : 20.1 MiB (0%)
Title                                    : Japanese-PGS
Language                                 : Japanese
Default                                  : No
Forced                                   : No

Menu
00:00:00.000                             : en:Chapter 01
00:04:18.716                             : en:Chapter 02
00:05:35.668                             : en:Chapter 03
00:11:17.802                             : en:Chapter 04
00:12:16.235                             : en:Chapter 05
00:14:08.556                             : en:Chapter 06
00:16:29.029                             : en:Chapter 07
00:18:50.337                             : en:Chapter 08
00:25:31.780                             : en:Chapter 09
00:30:54.227                             : en:Chapter 10
00:33:01.646                             : en:Chapter 11
00:36:11.836                             : en:Chapter 12
00:40:19.166                             : en:Chapter 13
00:44:58.278                             : en:Chapter 14
00:48:12.180                             : en:Chapter 15
00:51:28.418                             : en:Chapter 16
00:56:07.030                             : en:Chapter 17
01:00:55.610                             : en:Chapter 18
01:05:20.666                             : en:Chapter 19
01:07:02.101                             : en:Chapter 20
01:08:30.147                             : en:Chapter 21
01:13:19.103                             : en:Chapter 22
01:14:15.117                             : en:Chapter 23
01:16:00.097                             : en:Chapter 24
01:18:41.299                             : en:Chapter 25
01:21:57.621                             : en:Chapter 26
01:24:29.481                             : en:Chapter 27
01:26:54.334                             : en:Chapter 28
01:29:26.611                             : en:Chapter 29
01:30:51.362                             : en:Chapter 30
01:32:42.932                             : en:Chapter 31
01:33:24.265                             : en:Chapter 32



                                                                                                                                                                                                        
                                                                                                                                                                                                                                                                                                                                                                                                                                                                                                                                                                                                                                                                                                                                                                                                                                                       0f959e51979fbcdd239aedbc1176b858.torrent (62 KB, 下载次数: 0)

回复

使用道具 举报

小黑屋|西西论坛

本网站所有资源来自网络,如无意中侵犯了您的权益,请发邮件至 [email protected],立即清除相关链接

GMT+8, 2020-6-1 03:21 , Processed in 0.064580 second(s), 23 queries .

Powered by Discuz! X3.2

© 2001-2013 Comsenz Inc.

快速回复 返回顶部 返回列表