西西论坛

 找回密码
 立即注册
搜索

[BD-4K] 雷神2:黑暗世界 Thor.The.Dark.World.2013.2160p.BluRay.x264.8bit.SDR.DTS-...

[复制链接]
电影首发 发表于 2019-8-22 09:47:31 | 显示全部楼层 |阅读模式
帖子完整标题:雷神2:黑暗世界 Thor.The.Dark.World.2013.2160p.BluRay.x264.8bit.SDR.DTS-HD.MA.TrueHD.7.1.Atmos-SWTYBLZ 27.79GB


◎译  名 雷神2:黑暗世界 / Marvel's Thor: The Dark World / Thor 2 / 雷神2:黑暗国度 / 雷神奇侠2:黑暗世界(港) / 雷神托尔2 / 雷神索尔2:黑暗世界(台)
◎片  名 Thor: The Dark World
◎年  代 2013
◎产  地 美国
◎类  别 动作 / 奇幻 / 冒险
◎语  言 英语
◎上映日期 2013-11-08(中国大陆/美国)
◎IMDb评分  6.9/10 from 548286 users
◎片  长 112分钟
◎导  演 阿兰·泰勒 Alan Taylor
◎编  剧 克里斯托弗·约斯特 Christopher Yost / 克里斯托弗·马库斯 Christopher Markus / 斯蒂芬·麦克菲利 Stephen McFeely / 唐·佩恩 Don Payne / 罗伯特·罗达特 Robert Rodat / 斯坦·李 Stan Lee / 拉里·利伯 Larry Lieber / 杰克·科比 Jack Kirby / 沃尔特·西蒙森 Walter Simonson
◎主  演 克里斯·海姆斯沃斯 Chris Hemsworth
       娜塔莉·波特曼 Natalie Portman
       汤姆·希德勒斯顿 Tom Hiddleston
       安东尼·霍普金斯 Anthony Hopkins
       克里斯托弗·埃克莱斯顿 Christopher Eccleston
       杰米·亚历山大 Jaimie Alexander
       扎克瑞·莱维 Zachary Levi
       雷·史蒂文森 Ray Stevenson
       浅野忠信 Tadanobu Asano
       伊德里斯·艾尔巴 Idris Elba
       蕾妮·罗素 Rene Russo
       阿德沃尔·阿吉纽依-艾格拜吉 Adewale Akinnuoye-Agbaje
       凯特·戴琳斯 Kat Dennings
       斯特兰·斯卡斯加德 Stellan Skarsg?rd
       艾丽丝·克里奇 Alice Krige
       克里夫·罗素 Clive Russell
       乔纳森·霍华德 Jonathan Howard
       克里斯·奥多德 Chris O'Dowd
       妲露拉·莱莉 Talulah Riley
       奥菲利亚·拉维邦德 Ophelia Lovibond
       本尼西奥·德尔·托罗 Benicio Del Toro
       斯坦·李 Stan Lee


◎标  签 美国 | 科幻 | Marvel | 漫画改编 | 漫威 | 动作 | 超级英雄 | 2013

◎简  介  

  纽约大战后,雷神索尔(克里斯·海姆斯沃斯 Chris Hemsworth 饰)将弟弟洛基(汤姆·希德勒斯顿 Tom Hiddleston 饰)带回仙宫囚禁起来,此外帮助九大国度平定纷争,威名扶摇直上。虽然父王奥丁(安东尼·霍普金斯 Anthony Hopkins 饰)劝其及早即位,但索尔念念不忘地球的美丽女孩简·福斯特(娜塔丽·波特曼 Natalie Portman 饰)。与此同时,简在和黛西及其助手伊安调查某个区域时意外被神秘物质入侵,却也因此重逢索尔,并随其返回仙宫。令人意想不到的是,藏在简体内的物质来自远古的黑暗精灵玛勒基斯(克里斯托弗·埃克莱斯顿 Christopher Eccleston 饰)。在“天体汇聚”的时刻再次到来之际,玛勒基斯企图摧毁九大国度,缔造一个全然黑暗的宇宙。
  藏匿简的仙宫受到重创,而索尔和洛基这对冤家兄弟也不得不联手迎战宿命的强敌……

◎获奖情况  

  第23届MTV电影奖(2014)
  MTV电影奖 最佳赤膊表演(提名) 克里斯·海姆斯沃斯
  MTV电影奖 最佳英雄形象(提名) 克里斯·海姆斯沃斯

  第16届美国青少年选择奖(2014)
  最佳科幻/奇幻电影(提名)
  最佳科幻/奇幻电影男演员(提名) 克里斯·海姆斯沃斯
  最佳科幻/奇幻电影女演员(提名) 娜塔莉·波特曼

  第4届豆瓣电影鑫像奖(2014)
  鑫豆单元 最佳科幻/动作片(提名)
  豆渣单元 最渣女演员(外语)(提名) 娜塔莉·波特曼
Video
ID                                       : 1
Format                                   : AVC
Format/Info                              : Advanced Video Codec
Format settings                          : CABAC / 5 Ref Frames
Format settings, CABAC                   : Yes
Format settings, Reference frames        : 5 frames
Codec ID                                 : V_MPEG4/ISO/AVC
Duration                                 : 1 h 52 min
Bit rate                                 : 25.8 Mb/s
Width                                    : 3 840 pixels
Height                                   : 1 600 pixels
Display aspect ratio                     : 2.40:1
Frame rate mode                          : Constant
Frame rate                               : 23.976 (24000/1001) FPS
Color space                              : YUV
Chroma subsampling                       : 4:2:0
Bit depth                                : 8 bits
Scan type                                : Progressive
Bits/(Pixel*Frame)                       : 0.175
Stream size                              : 20.2 GiB (73%)
Title                                    : Thor.The.Dark.World.2013.2160p.BluRay.x264.8bit.SDR.DTS-HD.MA.TrueHD.7.1.Atmos-SWTYBLZ
Writing library                          : x264 core 157 r2935 545de2f
Encoding settings                        : cabac=1 / ref=5 / deblock=1:-1:-1 / analyse=0x3:0x113 / me=umh / subme=10 / psy=1 / psy_rd=1.00:0.15 / mixed_ref=1 / me_range=48 / chroma_me=1 / trellis=2 / 8x8dct=1 / cqm=0 / deadzone=21,11 / fast_pskip=1 / chroma_qp_offset=-3 / threads=50 / lookahead_threads=4 / sliced_threads=0 / nr=0 / decimate=0 / interlaced=0 / bluray_compat=0 / constrained_intra=0 / bframes=3 / b_pyramid=2 / b_adapt=2 / b_bias=0 / direct=3 / weightb=1 / open_gop=0 / weightp=2 / keyint=250 / keyint_min=23 / scenecut=40 / intra_refresh=0 / rc_lookahead=50 / rc=crf / mbtree=1 / crf=15.0 / qcomp=0.60 / qpmin=0 / qpmax=69 / qpstep=4 / ip_ratio=1.40 / aq=1:1.00
Default                                  : Yes
Forced                                   : No

Audio #1
ID                                       : 2
Format                                   : MLP FBA 16-ch
Format/Info                              : Meridian Lossless Packing FBA with 16-channel presentation
Commercial name                          : Dolby TrueHD with Dolby Atmos
Codec ID                                 : A_TRUEHD
Duration                                 : 1 h 52 min
Bit rate mode                            : Variable
Bit rate                                 : 4 579 kb/s
Maximum bit rate                         : 8 301 kb/s
Channel(s)                               : 8 channels
Channel layout                           : L R C LFE Ls Rs Lb Rb
Sampling rate                            : 48.0 kHz
Frame rate                               : 1 200.000 FPS (40 SPF)
Compression mode                         : Lossless
Stream size                              : 3.58 GiB (13%)
Title                                    : Thor.The.Dark.World.2013.2160p.BluRay.x264.8bit.SDR.DTS-HD.MA.TrueHD.7.1.Atmos-SWTYBLZ
Language                                 : English
Default                                  : Yes
Forced                                   : No
Number of dynamic objects                : 13
Bed channel count                        : 1 channel
Bed channel configuration                : LFE

Audio #2
ID                                       : 3
Format                                   : DTS XLL
Format/Info                              : Digital Theater Systems
Commercial name                          : DTS-HD Master Audio
Codec ID                                 : A_DTS
Duration                                 : 1 h 52 min
Bit rate mode                            : Variable
Bit rate                                 : 4 185 kb/s
Channel(s)                               : 8 channels
Channel layout                           : C L R LFE Lb Rb Lss Rss
Sampling rate                            : 48.0 kHz
Frame rate                               : 93.750 FPS (512 SPF)
Bit depth                                : 24 bits
Compression mode                         : Lossless
Stream size                              : 3.28 GiB (12%)
Title                                    : Thor.The.Dark.World.2013.2160p.BluRay.x264.8bit.SDR.DTS-HD.MA.TrueHD.7.1.Atmos-SWTYBLZ
Language                                 : English
Default                                  : No
Forced                                   : No

Audio #3
ID                                       : 4
Format                                   : AC-3
Format/Info                              : Audio Coding 3
Commercial name                          : Dolby Digital
Codec ID                                 : A_AC3
Duration                                 : 1 h 52 min
Bit rate mode                            : Constant
Bit rate                                 : 640 kb/s
Channel(s)                               : 6 channels
Channel layout                           : L R C LFE Ls Rs
Sampling rate                            : 48.0 kHz
Frame rate                               : 31.250 FPS (1536 SPF)
Bit depth                                : 16 bits
Compression mode                         : Lossy
Stream size                              : 513 MiB (2%)
Title                                    : Thor.The.Dark.World.2013.2160p.BluRay.x264.8bit.SDR.DTS-HD.MA.TrueHD.7.1.Atmos-SWTYBLZ
Language                                 : English
Service kind                             : Complete Main
Default                                  : No
Forced                                   : No

Menu
00:00:00.000                             : en:Chapter 01
00:06:13.664                             : en:Chapter 02
00:13:05.201                             : en:Chapter 03
00:18:40.994                             : en:Chapter 04
00:24:56.703                             : en:Chapter 05
00:29:07.495                             : en:Chapter 06
00:41:33.365                             : en:Chapter 07
00:49:40.227                             : en:Chapter 08
00:55:56.144                             : en:Chapter 09
01:00:08.855                             : en:Chapter 10
01:08:12.671                             : en:Chapter 11
01:12:39.897                             : en:Chapter 12
01:21:34.180                             : en:Chapter 13
01:26:22.093                             : en:Chapter 14
01:33:58.799                             : en:Chapter 15
01:38:31.363                             : en:Chapter 16
01:41:49.228                             : en:Chapter 17



                                                                                                                                                                                                        
                                                                                                                                                                                                                                                                                                                                                                                                                                                                                                                                                                                                                                                                                                                                                                                                                                                       4f6db248bea4055257d93833d2264eaf.torrent (70.12 KB, 下载次数: 0)

回复

使用道具 举报

小黑屋|西西论坛

本网站所有资源来自网络,如无意中侵犯了您的权益,请发邮件至 [email protected],立即清除相关链接

GMT+8, 2020-5-30 13:23 , Processed in 0.071216 second(s), 23 queries .

Powered by Discuz! X3.2

© 2001-2013 Comsenz Inc.

快速回复 返回顶部 返回列表