西西论坛

 找回密码
 立即注册
搜索

[BD-4K] 黑衣人:全球追缉 Men.in.Black.International.2019.INTERNAL.2160p.WEB.H26...

[复制链接]
电影首发 发表于 2019-8-21 09:42:50 | 显示全部楼层 |阅读模式


帖子完整标题:黑衣人:全球追缉 Men.in.Black.International.2019.INTERNAL.2160p.WEB.H265-DEFLATE 20.04GB




◎译  名 黑衣人:全球追缉 / MIB 23 / MIB 4 / MIB星际战警:跨国行动(台) / Men in Black 4 / Men in Black IV / 黑衣人23 / 黑衣人4 / 黑衣人外传 / 黑衣人:国际守护者 / 黑超特警组:反转世界(港) / 黑超特警队4
◎片  名 Men in Black International
◎年  代 2019
◎产  地 美国
◎类  别 喜剧 / 动作 / 科幻
◎语  言 英语
◎上映日期 2019-06-12(台湾) / 2019-06-14(美国/中国大陆)
◎IMDb评分  5.7/10 from 27642 users
◎片  长 115分钟
◎导  演 F·加里·格雷 F. Gary Gray
◎编  剧 劳威尔·坎宁安  Lowell Cunningham / 马特·霍洛维 Matt Holloway / 阿特·马库姆 Art Marcum
◎主  演 克里斯·海姆斯沃斯 Chris Hemsworth
      泰莎·汤普森 Tessa Thompson
      丽贝卡·弗格森 Rebecca Ferguson
      库梅尔·南贾尼 Kumail Nanjiani
      拉菲·斯波 Rafe Spall
      艾玛·汤普森 Emma Thompson
      连姆·尼森 Liam Neeson
      Davina Sitaram
      纳西尔·贾玛 Nasir Jama
      Viktorija Faith
      Penelope Kapudija
      斯蒂芬·怀特 Stephen Wight
      安纳托·陶布曼 Anatole Taubman
      露丝·霍洛克斯 Ruth Horrocks
      贝恩·科拉科 Bern Colla?o
      马西·哈里尔 Marcy Harriell
      哈廷·帕特尔 Hiten Patel
      通恰伊·古奈什 Tuncay Gunes
      Adrian Alvarado
      史蒂芬·萨姆森 Stephen Samson
      Mandeiya Flory
      黄渤 Bo Huang
      伊隆·马斯克 Elon Musk


◎标  签 科幻 | 外星人 | 美国 | 喜剧 | 特工 | 2019 | 动作 | 搞笑

◎简  介  

  全球最具影响力的经典科幻IP《黑衣人》全面升级!科幻电影之父史蒂文·斯皮尔伯格联手《速度与激情8》导演F·加里·格雷,金牌班底鼎力巨献!英国黑衣人总部王牌探员H(锤哥)与新晋探员M(泰莎·汤普森)在阻止外星团伙入侵的过程中意外铲除了隐藏在黑衣人组织中的内奸,成功拯救世界 。
影片中,各种脑洞大开的外星人和颠覆想象的高科技装备轮番登场,热血沸腾惊心动魄的动作追车场面层出不穷,完美构建出全新的黑衣人宇宙观。本片将于2019年6月14日内地同步北美上映。
Video
ID                                       : 1
Format                                   : HEVC
Format/Info                              : High Efficiency Video Coding
Codec ID                                 : V_MPEGH/ISO/HEVC
Duration                                 : 1 h 54 min
Bit rate                                 : 23.8 Mb/s
Width                                    : 3 840 pixels
Height                                   : 1 916 pixels
Original height                          : 2 160 pixels
Display aspect ratio                     : 16:9
Frame rate mode                          : Constant
Frame rate                               : 23.976 (24000/1001) FPS
Color space                              : YUV
Chroma subsampling                       : 4:2:0 (Type 2)
Bit depth                                : 10 bits
Bits/(Pixel*Frame)                       : 0.135
Stream size                              : 19.1 GiB (96%)
Language                                 : English
Default                                  : Yes
Forced                                   : No
Color range                              : Limited
Color primaries                          : BT.709
Transfer characteristics                 : BT.709
Matrix coefficients                      : BT.709

Audio
ID                                       : 2
Format                                   : E-AC-3 JOC
Format/Info                              : Enhanced AC-3 with Joint Object Coding
Commercial name                          : Dolby Digital Plus with Dolby Atmos
Codec ID                                 : A_EAC3
Duration                                 : 1 h 54 min
Bit rate mode                            : Constant
Bit rate                                 : 448 kb/s
Channel(s)                               : 6 channels
Channel layout                           : L R C LFE Ls Rs
Sampling rate                            : 48.0 kHz
Frame rate                               : 31.250 FPS (1536 SPF)
Compression mode                         : Lossy
Delay relative to video                  : 1 s 43 ms
Stream size                              : 368 MiB (2%)
Language                                 : English
Service kind                             : Complete Main
Default                                  : Yes
Forced                                   : No
Complexity index                         : 16
Number of dynamic objects                : 15
Bed channel count                        : 1 channel
Bed channel configuration                : LFE

Text #1
ID                                       : 3
Format                                   : UTF-8
Codec ID                                 : S_TEXT/UTF8
Codec ID/Info                            : UTF-8 Plain Text
Title                                    : English
Language                                 : English
Default                                  : No
Forced                                   : No

Text #2
ID                                       : 4
Format                                   : UTF-8
Codec ID                                 : S_TEXT/UTF8
Codec ID/Info                            : UTF-8 Plain Text
Title                                    : English (SDH)
Language                                 : English
Default                                  : No
Forced                                   : No

Menu
00:00:00.000                             : en:1
00:07:57.000                             : en:2
00:15:31.000                             : en:3
00:20:07.000                             : en:4
00:27:14.000                             : en:5
00:34:26.000                             : en:6
00:46:06.000                             : en:7
00:50:28.000                             : en:8
00:58:56.000                             : en:9
01:03:08.000                             : en:10
01:10:46.000                             : en:11
01:14:30.000                             : en:12
01:25:25.000                             : en:13
01:28:43.000                             : en:14
01:34:22.000                             : en:15
01:43:24.000                             : en:16



                                                                                                                                                                                                        
                                                                                                                                                                                                                                                                                                                                                                                                                                                                                                                                                                                                                                                                                                                                                                                                                                                       6e0249ebfe8add9a78fb5ddfb302bdd7.torrent (50.87 KB, 下载次数: 0)

回复

使用道具 举报

小黑屋|西西论坛

本网站所有资源来自网络,如无意中侵犯了您的权益,请发邮件至 [email protected],立即清除相关链接

GMT+8, 2020-5-30 14:45 , Processed in 0.065737 second(s), 23 queries .

Powered by Discuz! X3.2

© 2001-2013 Comsenz Inc.

快速回复 返回顶部 返回列表