西西论坛

 找回密码
 立即注册
搜索

不要进屋/别进屋 Dont.Go.in.the.House.1979.UNCUT.1080p.BluRay.x264-SADPANDA 6.55G ...

[复制链接]
电影首发 发表于 2019-5-24 13:18:04 | 显示全部楼层 |阅读模式
不要进屋/别进屋 Dont.Go.in.the.House.1979.UNCUT.1080p.BluRay.x264-SADPANDA 6.55GB




译  名 不要进屋 / 别进屋
片  名 Don't Go in the House
年  代 1979
产  地 美国
类  别 惊悚 / 恐怖 / 犯罪
语  言 英语
上映日期 1980-03-28(美国)
IMDb评分  5.7/10 from 3254 users
片  长 82 分钟
导  演 约瑟夫 埃利森 (Joseph Ellison)
编  剧 埃伦 哈米尔 (Ellen Hammill) / 约瑟夫 埃利森 (Joseph Ellison) / Joseph Masefield

标  签 恐怖 | 惊悚 | cult | 犯罪 | 美国电影 | 美国 | 精神病 | 暴力

简  介  

  唐那德 柯勒尔有一个傲慢残忍的母亲柯勒尔夫人(Ruth Dardick饰)。为了除掉所谓附在柯勒尔身上的魔鬼,母亲屡次把他置于火上烘烤。多年后,柯勒尔长大成人,成为了新泽西州一名火炉工人。一日,工厂的焚烧炉发生意外泄漏事故,一名同事被喷射出的火焰烧伤,痛苦不堪,柯勒尔目睹了这一切,隐藏在心底那些惨痛的记忆再次浮现,于是他拒绝了朋友邀他喝酒压惊的建议,回到家中,发现他的体弱的母亲已经在熟睡中死去。柯勒尔终于永久地摆脱了肆虐成性的母亲,但多年来压抑在心底的痛苦和怨恨并没有因母亲的逝世而释怀,反而在连续的刺激下突然爆发,心理极度扭曲的他在家里设置一个金属铁屋和火焰喷射器,并将一个在跳舞时遇到了酷似母亲的长着亚麻色头发的女郎Kathy Jordan (Johanna Brushay饰)诱骗到家里,将她关入铁屋,用火焰喷射器烘烤她;柯勒尔自己则穿上母亲的衣服,以母亲当年的口吻斥责Jordan。夜幕低垂,柯勒尔又开始寻觅下一个长得象自己母亲的女郎……
Video
ID                                       : 1
Format                                   : AVC
Format/Info                              : Advanced Video Codec

Format settings                          : CABAC / 4 Ref Frames
Format settings, CABAC                   : Yes
Format settings, ReFrames                : 4 frames
Codec ID                                 : V_MPEG4/ISO/AVC
Duration                                 : 1 h 32 min
Bit rate                                 : 9 244 kb/s
Width                                    : 1 920 pixels
Height                                   : 1 080 pixels
Display aspect ratio                     : 16:9
Frame rate mode                          : Constant
Frame rate                               : 23.976 (24000/1001) FPS
Color space                              : YUV
Chroma subsampling                       : 4:2:0
Bit depth                                : 8 bits
Scan type                                : Progressive
Bits/(Pixel*Frame)                       : 0.186
Stream size                              : 5.95 GiB (91%)
Writing library                          : x264 core 152 r2851 ba24899
Encoding settings                        : cabac=1 / ref=4 / deblock=1:-3:-3 / analyse=0x3:0x113 / me=umh / subme=8 / psy=1 / psy_rd=1.00:0.25 / mixed_ref=1 / me_range=24 / chroma_me=1 / trellis=1 / 8x8dct=1 / cqm=0 / deadzone=21,11 / fast_pskip=1 / chroma_qp_offset=-4 / threads=30 / lookahead_threads=5 / sliced_threads=0 / nr=0 / decimate=1 / interlaced=0 / bluray_compat=0 / constrained_intra=0 / bframes=3 / b_pyramid=2 / b_adapt=1 / b_bias=0 / direct=3 / weightb=1 / open_gop=0 / weightp=2 / keyint=240 / keyint_min=24 / scenecut=40 / intra_refresh=0 / rc_lookahead=50 / rc=2pass / mbtree=1 / bitrate=9244 / ratetol=1.0 / qcomp=0.60 / qpmin=0 / qpmax=69 / qpstep=4 / cplxblur=20.0 / qblur=0.5 / ip_ratio=1.40 / aq=1:0.75
Default                                  : Yes
Forced                                   : No

Audio
ID                                       : 2
Format                                   : FLAC
Format/Info                              : Free Lossless Audio Codec
Codec ID                                 : A_FLAC
Duration                                 : 1 h 32 min
Bit rate mode                            : Variable
Bit rate                                 : 937 kb/s
Channel(s)                               : 2 channels
Channel layout                           : L R
Sampling rate                            : 48.0 kHz
Frame rate                               : 11.719 FPS (4096 SPF)
Bit depth                                : 24 bits
Compression mode                         : Lossless
Stream size                              : 618 MiB (9%)
Writing library                          : libFLAC 1.2.1 (UTC 2007-09-17)
Language                                 : English
Default                                  : Yes
Forced                                   : No

Menu
00:00:00.000                             : en:00:00:00.000
00:06:10.954                             : en:00:06:10.954
00:14:44.884                             : en:00:14:44.884
00:22:24.260                             : en:00:22:24.260
00:30:30.704                             : en:00:30:30.704
00:35:07.188                             : en:00:35:07.188
00:45:01.115                             : en:00:45:01.115
00:49:27.715                             : en:00:49:27.715
00:56:00.023                             : en:00:56:00.023
01:04:02.172                             : en:01:04:02.172
01:07:08.775                             : en:01:07:08.775
01:13:49.508                             : en:01:13:49.508
01:19:02.821                             : en:01:19:02.821
01:22:47.546                             : en:01:22:47.546
01:29:32.784                             : en:01:29:32.784



                                                                                                                                                                                                        

                                                                                                                        
                                                                                                                                                                                                                                                         Dont.Go.in.the.House.1979.UNCUT.1080p.BluRay.x264-SADPANDA.torrent (33.29 KB, 下载次数: 0)

回复

使用道具 举报

小黑屋|西西论坛

本网站所有资源来自网络,如无意中侵犯了您的权益,请发邮件至 [email protected],立即清除相关链接

GMT+8, 2019-8-21 08:55 , Processed in 0.345243 second(s), 23 queries .

Powered by Discuz! X3.2

© 2001-2013 Comsenz Inc.

快速回复 返回顶部 返回列表