西西论坛

 找回密码
 立即注册
搜索

成为弗兰克:克里斯·西维的故事 Being.Frank.The.Chris.Sievey.Story.2018.LiMiTED.10 ...

[复制链接]
电影首发 发表于 2019-5-24 13:18:04 | 显示全部楼层 |阅读模式
成为弗兰克:克里斯·西维的故事 Being.Frank.The.Chris.Sievey.Story.2018.LiMiTED.1080p.BluRay.x264-CADAVER 7.67GB




译  名 成为弗兰克:克里斯·西维的故事
片  名 Being Frank: The Chris Sievey Story
年  代 2018
产  地 英国
类  别 纪录片 / 音乐
语  言 英语
上映日期 2018-03-13(西南偏南电影节)
IMDb评分  8.2/10 from 134 users
片  长 100分钟
导  演 Steve Sullivan
主  演 约翰尼·维加斯 Johnny Vegas
      罗斯·诺贝尔 Ross Noble
      John Cooper Clarke
      Frank Sidebottom
      Mark Radcliffe
      John Thomson
      Mike Joyce
      Gaz Whelan
      Bruce Mitchell
      Mike Doherty


标  签 英国 | 纪录片 | 音乐 | 艺术 | 纪录片及其他 | 传记 | LFF

简  介  

  It's a documentary about the life of eccentric comidian Frank Sidebottom who wore a huge paper mache' head and whose true identity was a closely guarded secret until after died. The 2014 Magnolia Pictures film titled Frank was inspired by his sensational mystery.

获奖情况  

  第21届英国独立电影奖(2018)
  最佳纪录片(提名)

Video
ID                                       : 1
Format                                   : AVC
Format/Info                              : Advanced Video Codec

Format settings                          : CABAC / 4 Ref Frames
Format settings, CABAC                   : Yes
Format settings, ReFrames                : 4 frames
Codec ID                                 : V_MPEG4/ISO/AVC
Duration                                 : 1 h 40 min
Bit rate                                 : 9 382 kb/s
Width                                    : 1 920 pixels
Height                                   : 1 080 pixels
Display aspect ratio                     : 16:9
Frame rate mode                          : Constant
Frame rate                               : 25.000 FPS
Color space                              : YUV
Chroma subsampling                       : 4:2:0
Bit depth                                : 8 bits
Scan type                                : Progressive
Bits/(Pixel*Frame)                       : 0.181
Stream size                              : 6.59 GiB (86%)
Writing library                          : x264 core 157 r2969 d4099dd
Encoding settings                        : cabac=1 / ref=4 / deblock=1:-3:-3 / analyse=0x3:0x133 / me=umh / subme=9 / psy=1 / psy_rd=1.00:0.00 / mixed_ref=1 / me_range=24 / chroma_me=1 / trellis=1 / 8x8dct=1 / cqm=0 / deadzone=21,11 / fast_pskip=0 / chroma_qp_offset=-2 / threads=24 / lookahead_threads=4 / sliced_threads=0 / nr=0 / decimate=1 / interlaced=0 / bluray_compat=0 / constrained_intra=0 / bframes=8 / b_pyramid=2 / b_adapt=2 / b_bias=0 / direct=3 / weightb=1 / open_gop=0 / weightp=2 / keyint=250 / keyint_min=25 / scenecut=40 / intra_refresh=0 / rc_lookahead=60 / rc=2pass / mbtree=1 / bitrate=9382 / ratetol=1.0 / qcomp=0.60 / qpmin=0 / qpmax=69 / qpstep=4 / cplxblur=20.0 / qblur=0.5 / vbv_maxrate=62500 / vbv_bufsize=78125 / nal_hrd=none / filler=0 / ip_ratio=1.40 / aq=1:1.00
Default                                  : Yes
Forced                                   : No

Audio
ID                                       : 2
Format                                   : DTS
Format/Info                              : Digital Theater Systems
Codec ID                                 : A_DTS
Duration                                 : 1 h 40 min
Bit rate mode                            : Constant
Bit rate                                 : 1 509 kb/s
Channel(s)                               : 6 channels
Channel layout                           : C L R Ls Rs LFE
Sampling rate                            : 48.0 kHz
Frame rate                               : 93.750 FPS (512 SPF)
Bit depth                                : 24 bits
Compression mode                         : Lossy
Stream size                              : 1.06 GiB (14%)
Language                                 : English
Default                                  : Yes
Forced                                   : No

Menu
00:00:00.000                             : en:Chapter 01
00:04:34.400                             : en:Chapter 02
00:11:59.000                             : en:Chapter 03
00:15:42.240                             : en:Chapter 04
00:20:23.720                             : en:Chapter 05
00:26:34.920                             : en:Chapter 06
00:33:57.120                             : en:Chapter 07
00:39:30.240                             : en:Chapter 08
00:48:47.320                             : en:Chapter 09
00:51:37.640                             : en:Chapter 10
00:56:23.640                             : en:Chapter 11
01:02:08.880                             : en:Chapter 12
01:14:08.280                             : en:Chapter 13
01:18:52.680                             : en:Chapter 14
01:24:58.160                             : en:Chapter 15
01:28:06.720                             : en:Chapter 16
01:33:28.880                             : en:Chapter 17
01:37:08.000                             : en:Chapter 18



                                                                                                                                                                                                        

                                                                                                                        
                                                                                                                                                                                                                                                         Being.Frank.The.Chris.Sievey.Story.2018.LiMiTED.1080p.BluRay.x264-CADAVER.torrent (39.37 KB, 下载次数: 0)

回复

使用道具 举报

小黑屋|西西论坛

本网站所有资源来自网络,如无意中侵犯了您的权益,请发邮件至 [email protected],立即清除相关链接

GMT+8, 2019-8-21 09:04 , Processed in 0.063755 second(s), 23 queries .

Powered by Discuz! X3.2

© 2001-2013 Comsenz Inc.

快速回复 返回顶部 返回列表