西西论坛

 找回密码
 立即注册
搜索

英雄炼狱 Heroic.Purgatory.1970.1080p.BluRay.x264-USURY 10.92GB

[复制链接]
电影首发 发表于 2019-5-24 13:18:04 | 显示全部楼层 |阅读模式
英雄炼狱 Heroic.Purgatory.1970.1080p.BluRay.x264-USURY 10.92GB




译  名 英雄炼狱 / Heroic Purgatory / Rengoku eroica
片  名 煉獄エロイカ
年  代 1970
产  地 日本
类  别 剧情 / 奇幻
语  言 日语
上映日期 1970-09-26
IMDb评分  7.3/10 from 415 users
片  长 118 分钟(23 fps)
导  演 吉田喜重
编  剧 山田正弘 / 吉田喜重
主  演 岡田茉莉子


标  签 吉田喜重 | 日本 | 日本电影 | 1970s | 1970 | 黑白 | 冈田茉莉子 | 岡田茉莉子

简  介  

  庄田力弥40歳、現在原子力機構にたずさわる研究職員。彼は日常の平和な、根無し草のような頼りなく漂っている時間に生きている。それがある日付のときから、破滅の道を選ばざるをえなくなる。庄田の妻夏那子が見知らぬ少女を誘拐したのである。それは奇妙な事件だった。得体のしれない闖入者のように、少女の方から彼らの家庭に入りこんできたのである。妻は少女が力弥の過去となんらかの関係があると信じ、またそれを裏づけるように力弥の昔の友人田屋が登場する。たしかに力弥には隠された暗黒の時代があった。戦後日本の前衛党が非合法化された時代、大学生であった力弥はその細胞の末端にあって、当時計画されたアメリカ大使誘拐事件に加わったメンバーだった。だが事実は前衛党の挑発行為であったことが暴露され、裏切られた力弥たちはその重い過去を背負ったまま沈黙したのだった。妻が誘拐した見知らぬ少女の背後にかつてのメンバーであり、あの事件以来海外に姿を消していた友人田屋の帰国。それらの暗示は力弥にあのいまわしい過去が現在にも影をおとしていることを教え、戦慄させるのだった。そしてその不安は現実に起る。力弥は脅迫された。だがその相手は彼のまったく知らない若い娘でありその背後にあるものは反戦グループと自称する組織だった。そして彼らの計画しているものはアメリカ大使誘拐であり、庄田夫妻の少女誘拐を理由に、彼等への協力を強いられたのだ。二十年近い時間をへだてて、偶然まったく相似したアメリカ大使誘拐計画の全貌。力弥は思わず幻惑の淵に溺れた。
Video
ID                                       : 1
Format                                   : AVC
Format/Info                              : Advanced Video Codec

Format settings, CABAC                   : Yes
Format settings, ReFrames                : 4 frames
Codec ID                                 : V_MPEG4/ISO/AVC
Duration                                 : 1h 58mn
Bit rate                                 : 12.9 Mbps
Width                                    : 1 472 pixels
Height                                   : 1 080 pixels
Display aspect ratio                     : 4:3
Frame rate mode                          : Constant
Frame rate                               : 23.976 (24000/1001) fps
Color space                              : YUV
Chroma subsampling                       : 4:2:0
Bit depth                                : 8 bits
Scan type                                : Progressive
Bits/(Pixel*Frame)                       : 0.339
Stream size                              : 10.7 GiB (98%)
Writing library                          : x264 core 152 r2851 ba24899
Encoding settings                        : cabac=1 / ref=4 / deblock=1:-3:-3 / analyse=0x3:0x133 / me=umh / subme=9 / psy=1 / psy_rd=1.00:0.00 / mixed_ref=1 / me_range=16 / chroma_me=1 / trellis=2 / 8x8dct=1 / cqm=0 / deadzone=21,11 / fast_pskip=0 / chroma_qp_offset=-2 / threads=34 / lookahead_threads=2 / sliced_threads=0 / nr=0 / decimate=1 / interlaced=0 / bluray_compat=0 / constrained_intra=0 / bframes=3 / b_pyramid=2 / b_adapt=1 / b_bias=0 / direct=3 / weightb=1 / open_gop=0 / weightp=2 / keyint=240 / keyint_min=24 / scenecut=40 / intra_refresh=0 / rc_lookahead=50 / rc=2pass / mbtree=1 / bitrate=12920 / ratetol=1.0 / qcomp=0.60 / qpmin=0 / qpmax=69 / qpstep=4 / cplxblur=20.0 / qblur=0.5 / ip_ratio=1.40 / aq=1:1.00
Language                                 : English
Default                                  : Yes
Forced                                   : No

Audio
ID                                       : 2
Format                                   : FLAC
Format/Info                              : Free Lossless Audio Codec
Codec ID                                 : A_FLAC
Duration                                 : 1h 58mn
Bit rate mode                            : Variable
Bit rate                                 : 313 Kbps
Channel(s)                               : 1 channel
Channel positions                        : Front: C
Sampling rate                            : 48.0 KHz
Frame rate                               : 11.719 fps (4096 spf)
Bit depth                                : 16 bits
Stream size                              : 265 MiB (2%)
Writing library                          : libFLAC 1.2.1 (UTC 2007-09-17)
Language                                 : Japanese
Default                                  : Yes
Forced                                   : No

Text
ID                                       : 3
Format                                   : UTF-8
Codec ID                                 : S_TEXT/UTF8
Codec ID/Info                            : UTF-8 Plain Text
Duration                                 : 1h 54mn
Bit rate                                 : 34 bps
Count of elements                        : 804
Stream size                              : 28.9 KiB (0%)
Title                                    : English
Language                                 : English
Default                                  : Yes
Forced                                   : Yes

Menu
00:00:00.000                             : en:00:00:00.000
00:07:59.896                             : en:00:07:59.896
00:22:31.058                             : en:00:22:31.058
00:31:07.991                             : en:00:31:07.991
00:41:01.125                             : en:00:41:01.125
00:49:32.386                             : en:00:49:32.386
00:58:57.367                             : en:00:58:57.367
01:08:34.235                             : en:01:08:34.235
01:18:20.321                             : en:01:18:20.321
01:27:25.407                             : en:01:27:25.407
01:36:17.271                             : en:01:36:17.271
01:46:42.813                             : en:01:46:42.813



                                                                                                                                                                                                        

                                                                                                                        
                                                                                                                                                                                                                                                         Heroic.Purgatory.1970.1080p.BluRay.x264-USURY.torrent (55.19 KB, 下载次数: 0)

回复

使用道具 举报

小黑屋|西西论坛

本网站所有资源来自网络,如无意中侵犯了您的权益,请发邮件至 [email protected],立即清除相关链接

GMT+8, 2019-8-21 09:00 , Processed in 0.081825 second(s), 23 queries .

Powered by Discuz! X3.2

© 2001-2013 Comsenz Inc.

快速回复 返回顶部 返回列表