西西论坛

 找回密码
 立即注册
搜索

埃及广场 The.Square.2013.LIMITED.SUBBED.1080p.BluRay.x264-USURY 7.94GB

[复制链接]
电影首发 发表于 2019-5-24 13:18:04 | 显示全部楼层 |阅读模式
埃及广场 The.Square.2013.LIMITED.SUBBED.1080p.BluRay.x264-USURY 7.94GB




译  名 埃及广场 / The Square / 广场
片  名 Al midan
年  代 2013
产  地 埃及 / 美国
类  别 剧情 / 纪录片 / 历史
语  言 阿拉伯语 / 英语
上映日期 2013-01-18(圣丹斯电影节)
IMDb评分  8.1/10 from 7984 users
片  长 95分钟
导  演 耶菡·妮珍儿 Jehane Noujaim
主  演 赫立德·阿卜杜拉 Khalid Abdalla
      Magdy Ashour
      Ahmad Salama


标  签 纪录片 | 埃及 | 政治 | 美国 | Documentary | 2013 | 历史 | 美国电影

简  介  

  影片讲述了埃及的一些社会活动家,未能改造旧社会而不惜冒着生命危险与国家领导、当权者斗争的故事。影片跟踪拍摄他们长达两年时间,记录下了埃及人的民主自由运动历程。这部纪录片的女导演Jehane Noujaim是一位埃及裔美国人,她曾拍摄过2004年备受好评的纪录片《控制室》(Control Room)。此片荣获2013年多伦多电影节“纪录片观众选择奖”。

获奖情况  

  第86届奥斯卡金像奖(2014)
  最佳纪录长片(提名) 耶菡·妮珍儿 / Karim Amer

  第29届圣丹斯电影节(2013)
  评审团大奖 世界电影单元纪录片(提名) 耶菡·妮珍儿
  观众奖 世界电影单元纪录片 耶菡·妮珍儿

  第38届多伦多国际电影节(2013)
  观众选择奖 纪录片单元 耶菡·妮珍儿

  第66届美国导演工会奖(2014)
  最佳纪录片导演 耶菡·妮珍儿

  第85届美国国家评论协会奖(2014)
  五佳纪录片

  第29届美国独立精神奖(2014)
  最佳纪录片(提名) 耶菡·妮珍儿 / Karim Amer

  第18届金卫星奖(2014)
  电影部门 最佳纪录片(提名)

Video
ID : 1
Format : AVC
Format/Info : Advanced Video Codec

Format settings, CABAC : Yes
Format settings, ReFrames : 4 frames
Codec ID : V_MPEG4/ISO/AVC
Duration : 1h 49mn
Bit rate : 9 764 Kbps
Width : 1 920 pixels
Height : 1 080 pixels
Display aspect ratio : 16:9
Frame rate mode : Constant
Frame rate : 23.976 (24000/1001) fps
Color space : YUV
Chroma subsampling : 4:2:0
Bit depth : 8 bits
Scan type : Progressive
Bits/(Pixel*Frame) : 0.196
Stream size : 7.45 GiB (94%)
Writing library : x264 core 152 r2851 ba24899
Encoding settings : cabac=1 / ref=4 / deblock=1:-3:-3 / analyse=0x3:0x133 / me=umh / subme=9 / psy=1 / psy_rd=1.00:0.00 / mixed_ref=1 / me_range=16 / chroma_me=1 / trellis=2 / 8x8dct=1 / cqm=0 / deadzone=21,11 / fast_pskip=0 / chroma_qp_offset=-2 / threads=34 / lookahead_threads=2 / sliced_threads=0 / nr=0 / decimate=1 / interlaced=0 / bluray_compat=0 / constrained_intra=0 / bframes=3 / b_pyramid=2 / b_adapt=1 / b_bias=0 / direct=3 / weightb=1 / open_gop=0 / weightp=2 / keyint=250 / keyint_min=23 / scenecut=40 / intra_refresh=0 / rc_lookahead=50 / rc=2pass / mbtree=1 / bitrate=9764 / ratetol=1.0 / qcomp=0.60 / qpmin=0 / qpmax=69 / qpstep=4 / cplxblur=20.0 / qblur=0.5 / ip_ratio=1.40 / aq=1:1.00
Language : English
Default : Yes
Forced : No

Audio
ID : 2
Format : AC-3
Format/Info : Audio Coding 3
Mode extension : CM (complete main)
Format settings, Endianness : Big
Codec ID : A_AC3
Duration : 1h 49mn
Bit rate mode : Constant
Bit rate : 640 Kbps
Channel(s) : 6 channels
Channel positions : Front: L C R, Side: L R, LFE
Sampling rate : 48.0 KHz
Frame rate : 31.250 fps (1536 spf)
Compression mode : Lossy
Stream size : 500 MiB (6%)
Default : Yes
Forced : No

Menu
00:00:00.000 : en:00:00:00.000
00:16:22.815 : en:00:16:22.815
00:35:19.618 : en:00:35:19.618
00:48:34.203 : en:00:48:34.203
01:11:38.211 : en:01:11:38.211
01:17:36.443 : en:01:17:36.443
01:29:26.945 : en:01:29:26.945
01:45:07.885 : en:01:45:07.885



                                                                                                                                                                                                        

                                                                                                                        
                                                                                                                                                                                                                                                         The.Square.2013.LIMITED.SUBBED.1080p.BluRay.x264-USURY.torrent (80.04 KB, 下载次数: 0)

回复

使用道具 举报

小黑屋|西西论坛

本网站所有资源来自网络,如无意中侵犯了您的权益,请发邮件至 [email protected],立即清除相关链接

GMT+8, 2019-8-21 08:41 , Processed in 0.062280 second(s), 23 queries .

Powered by Discuz! X3.2

© 2001-2013 Comsenz Inc.

快速回复 返回顶部 返回列表