西西论坛

 找回密码
 立即注册
搜索

绿卡/绿卡情缘 Green.Card.1990.720p.BluRay.x264-SNOW 5.46GB

[复制链接]
电影首发 发表于 2019-5-24 13:07:50 | 显示全部楼层 |阅读模式
绿卡/绿卡情缘 Green.Card.1990.720p.BluRay.x264-SNOW 5.46GB




译  名 绿卡 / 绿卡情缘 / 绿咭情缘
片  名 Green Card
年  代 1990
产  地 澳大利亚 / 法国 / 美国
类  别 喜剧 / 爱情
语  言 英语 / 法语 / 西班牙语
上映日期 1990-12-23
IMDb评分  6.2/10 from 20989 users
片  长 103分钟
导  演 彼得·威尔 Peter Weir
编  剧 彼得·威尔 Peter Weir
主  演 热拉尔·德帕迪约 Gérard Depardieu
      安迪·麦克道威尔 Andie MacDowell
      毕比·诺维尔什 Bebe Neuwirth
      格雷格·埃德尔曼 Gregg Edelman
      罗伯特·普罗斯基 Robert Prosky
      Jessie Keosian
      伊桑·菲利普斯 Ethan Phillips
      玛丽·路易丝·威尔逊 Mary Louise Wilson
      罗伊丝·史密斯 Lois Smith
      Conrad McLaren
      罗纳德·格特曼 Ronald Guttman
      斯蒂芬·皮尔曼 Stephen Pearlman
      维多利亚·布思比 Victoria Boothby
      安·韦奇沃斯 Ann Wedgeworth
      Stefan Schnabel
      西蒙·琼斯 Simon Jones
      马拉奇·麦考特 Malachy McCourt
      约翰·斯宾塞 John Spencer
      安·唐德 Ann Dowd
      德沃拉·纳尔逊 Novella Nelson
      John Scanlan
      Arthur Anderson
      Vasek Simek
      Ernesto Gasco
      康拉德·罗伯茨 Conrad Roberts
      Chris Odo
      瑞克阿维莱斯 Rick Aviles
      阿卜杜拉耶·恩戈姆 Abdoulaye NGom
      Timothy Stickney


标  签 爱情 | 美国 | 喜剧 | 法国 | 美国电影 | 1990 | 绿卡 | 澳大利亚

简  介  

  音乐家乔治(杰拉尔·德帕迪约 Gérard Depardieu饰)和园林爱好者布朗蒂(安迪·麦克道威尔 Andie MacDowell饰)的结合,完全是出自各自的私心:乔治来自法国,想得到一张美国的绿卡,从而在这里发展事业;布朗蒂看中了一套公寓,却被告知只有夫妻才能入住。于是,两人一拍即合,各取所需,结婚后很快就过回各不相干的生活。
美国移民局的怀疑随之而来。为了一张绿卡而假结婚的案例他们见得多了,乔治和布朗蒂的婚姻自然也逃不过他们的法眼。严谨认真的调查介入了这对“夫妻”的生活。现在,乔治和布朗蒂必须策划出一个完美的恋爱和结婚过程,摆造出一起生活的种种细节证据。为了能让婚姻变得更加可信,乔治甚至住进了布朗蒂的家,两人却渐渐戏假情真。

获奖情况  

  第63届奥斯卡金像奖(1991)
  最佳原创剧本(提名) 彼得·威尔

Video
ID                                       : 1
Format                                   : AVC
Format/Info                              : Advanced Video Codec
Format profile                           :
Format settings                          : CABAC / 5 Ref Frames
Format settings, CABAC                   : Yes
Format settings, ReFrames                : 5 frames
Codec ID                                 : V_MPEG4/ISO/AVC
Duration                                 : 1 h 47 min
Bit rate                                 : 5 781 kb/s
Width                                    : 1 280 pixels
Height                                   : 688 pixels
Display aspect ratio                     : 1.85:1
Frame rate mode                          : Constant
Frame rate                               : 23.976 (24000/1001) FPS
Color space                              : YUV
Chroma subsampling                       : 4:2:0
Bit depth                                : 8 bits
Scan type                                : Progressive
Bits/(Pixel*Frame)                       : 0.274
Stream size                              : 4.22 GiB (77%)
Writing library                          : x264 core 157 r2969 d4099dd
Encoding settings                        : cabac=1 / ref=5 / deblock=1:0:0 / analyse=0x3:0x113 / me=umh / subme=8 / psy=1 / psy_rd=1.00:0.00 / mixed_ref=1 / me_range=16 / chroma_me=1 / trellis=1 / 8x8dct=1 / cqm=0 / deadzone=21,11 / fast_pskip=1 / chroma_qp_offset=-2 / threads=24 / lookahead_threads=4 / sliced_threads=0 / nr=0 / decimate=1 / interlaced=0 / bluray_compat=0 / constrained_intra=0 / bframes=3 / b_pyramid=2 / b_adapt=1 / b_bias=0 / direct=3 / weightb=1 / open_gop=0 / weightp=2 / keyint=240 / keyint_min=24 / scenecut=40 / intra_refresh=0 / rc_lookahead=50 / rc=2pass / mbtree=1 / bitrate=5781 / ratetol=1.0 / qcomp=0.60 / qpmin=0 / qpmax=69 / qpstep=4 / cplxblur=20.0 / qblur=0.5 / ip_ratio=1.40 / aq=1:1.00
Language                                 : English
Default                                  : Yes
Forced                                   : No

Audio
ID                                       : 3
Format                                   : DTS
Format/Info                              : Digital Theater Systems
Codec ID                                 : A_DTS
Duration                                 : 1 h 47 min
Bit rate mode                            : Constant
Bit rate                                 : 1 509 kb/s
Channel(s)                               : 2 channels
Channel layout                           : L R
Sampling rate                            : 48.0 kHz
Frame rate                               : 93.750 FPS (512 SPF)
Bit depth                                : 24 bits
Compression mode                         : Lossy
Stream size                              : 1.13 GiB (21%)
Title                                    : English
Language                                 : English
Default                                  : Yes
Forced                                   : No

Text
ID                                       : 2
Format                                   : UTF-8
Codec ID                                 : S_TEXT/UTF8
Codec ID/Info                            : UTF-8 Plain Text
Title                                    : English
Language                                 : English
Default                                  : No
Forced                                   : No

Menu
00:00:00.000                             : en:Chapter 01
00:08:33.722                             : en:Chapter 02
00:17:29.006                             : en:Chapter 03
00:28:32.294                             : en:Chapter 04
00:42:20.830                             : en:Chapter 05
00:56:57.080                             : en:Chapter 06
01:16:41.096                             : en:Chapter 07
01:29:00.126                             : en:Chapter 08



                                                                                                                                                                                                        

                                                                                                                        
                                                                                                                                                                                                                                                         Green.Card.1990.720p.BluRay.x264-SNOW.torrent (27.93 KB, 下载次数: 0)

回复

使用道具 举报

小黑屋|西西论坛

本网站所有资源来自网络,如无意中侵犯了您的权益,请发邮件至 [email protected],立即清除相关链接

GMT+8, 2019-8-21 09:24 , Processed in 0.070663 second(s), 23 queries .

Powered by Discuz! X3.2

© 2001-2013 Comsenz Inc.

快速回复 返回顶部 返回列表